Wrath of the Titans 2012 TS XViD AC3-ADTRG

Movies, Telesync. April 1, 2012 by Jason.


This was fast, just after the first CAM, ADTRG got Line audio, now we got decent Telesync version.

k, as you already know, Two different sources. 1st min and last 10 min lower quality. the rest is hunky dorrie.
split into three parts and cleaned blah blah blah (oh no i didn't) lol
synced SuperDuper Line from our God Like Line supplier DE
Special thanks to NoWoRRiEs for cleaning this up and Dragon Exclusive for the Line, awesome work bro's

Wrath of the Titans 2012 TS XViD AC3-ADTRG

If you like this Release, dont be shy.... come say hi

IMDb

Source cam - Gn3v.Ti1anov.2012.D.TS.1400MB Thanks
Source Line - Dragon Exclusive , thanks very much Bro

Complete name : Wrath.of.the.Titans.2012.TS.XViD.AC3-ADTRG.avi
Format : AVI
Format/Info : Audio Video Interleave
File size : 1.26 GiB
Duration : 1h 30mn
Overall bit rate : 2 000 Kbps

Video
ID : 0
Format : MPEG-4 Visual
Codec ID : XVID
Duration : 1h 30mn
Bit rate : 1 799 Kbps
Width : 720 pixels
Height : 384 pixels
Display aspect ratio : 1.875
Frame rate : 25.000 fps
Stream size : 1.13 GiB (90%)

Audio
ID : 1
Format : AC-3
Duration : 1h 30mn
Bit rate : 192 Kbps
Channel(s) : 2 channels
Channel positions : Front: L R
Sampling rate : 48.0 KHz
Stream size : 124 MiB (10%)

Encoders - NoWoRRiEs and LiMeY


Video Sample

Download File


Wrath Of The Titans 2012
DVDRip XviD-DEPRiVED here
720p BluRay x264-REFiNED here
1080p BluRay x264-REFiNED here

Here you can download files online. Unlimited access to all sources file with one click direct download link!
Share
  • Featured link
  • [1-04-2012]
  • edmu
  • [2 April 2012 01:54]
thank you 4 RS.
great upload.
  • Amimomo
  • [1 April 2012 21:09]
Thanks
I just saw this movie in 3d. It was reallt great. I'll definitely get Blu-ray version when it's released. Thanks for the up.

Comment