Tod Browning's The Unholy Three (Lon Chaney, Harry Earles) [1925/TVRIP/XViD]

Movies. May 24, 2011 by sykdL.
Tod Browning's The Unholy Three (Lon Chaney, Harry Earles) [1925/TVRIP/XViD]
Tod Browning's The Unholy Three (Lon Chaney, Harry Earles) [1925/TVRIP/XViD] | 700 MB
IMDB


Does it get any better than this. Directed by Tod Browning and starring Harry Earles from Freaks. This is one fantastic lost thriller also starring Lon Chaney.
An old lady, a strong man, and a dwarf leave the circus to run a fake antique shop as a family, and then launch an incredible wave of crime.
Three Lon Chaney movies in one day, you ask? You're damn right. Lon Chaney kicks asses.
Got this from KG.

Tod Browning's The Unholy Three (Lon Chaney, Harry Earles) [1925/TVRIP/XViD]

Format                           : AVI
Format/Info                      : Audio Video Interleave
File size                        : 701 MiB
Duration                         : 1h 25mn
Overal bit rate                  : 1143 Kbps
Writing application              : VirtualDubMod 1.5.10.2 (build 2540/release)
Writing library                  : VirtualDubMod build 2540/release

Video
Format                           : MPEG-4 Visual
Format profile                   : Streaming Video@L1
Format settings, BVOP            : Yes
Format settings, QPel            : No
Format settings, GMC             : No warppoints
Format settings, Matrix          : Default
Muxing mode                      : Packet Bitstream
Codec ID                         : XVID
Codec ID/Hint                    : XviD
Duration                         : 1h 25mn
Bit rate                         : 1071 Kbps
Width                            : 512 pixels
Height                           : 384 pixels
Display aspect ratio             : 4/3
Frame rate                       : 19.980 fps
Resolution                       : 8 bits
Colorimetry                      : 4:2:0
Scan type                        : Progressive
Bits/(Pixel*Frame)               : 0.273
Stream size                      : 656 MiB
Writing library                  : XviD 1.1.0 (UTC 2005-11-22)

Audio
Format                           : MPEG Audio
Format version                   : Version 1
Format profile                   : Layer 3
Codec ID                         : 55
Codec ID/Hint                    : MP3
Duration                         : 1h 25mn
Bit rate mode                    : Variable
Bit rate                         : 60.0 Kbps
Minimum bit rate                 : 32.0 Kbps
Channel(s)                       : 1 channel
Sampling rate                    : 48.0 KHz
Resolution                       : 16 bits
Stream size                      : 36.8 MiB
Writing library                  : LAME3.97b
Encoding settings                : VBR (mtrh)


Download File

Here you can download files online. Unlimited access to all sources file with one click direct download link!
Share
  • stewart wilson
  • [19 November 2011 08:24]
i love old movies

Comment