Time Management From The Inside Out By Julie Morgenstern

Tutorial & e-learning. May 21, 2011 by sputnik.
Time Management From The Inside Out By Julie Morgenstern

Time Management From The Inside Out By Julie Morgenstern
DVD5 | English | DVD video | 720x480 | MPEG2 ~5500 kbps | 29.97 fps
AC-3 | 224 kbps | 48.0 KHz | 2 channels | 3.7 GB
Genre: elearning

Building upon the success of her bestselling book and PBS pledge success "Organizing from the Inside Out," Julie Morgenstern offers an entirely new, breakthrough system for taking control of your schedule and your life. In this program, Julie offers invaluable new insights and tools that will help viewers take control of their time, and help each of us have the time for what's really important in our lives.
A thoroughly updated and expanded edition of the definitive guide to managing and freeing up time. Applying the groundbreaking from-the-inside-out approach that made Organizing from the Inside Out a New York Times bestseller, Julie Morgenstern set a new standard for the time- management category. Her system has helped countless readers uncover their psychological stumbling blocks and strengths, and develop a time-management system that suits their individual needs.
By applying her proven three-step program-Analyze, Strategize, Attack-and following her effective guidelines, readers will find more time for work, family, self-improvement, or whatever is most important to them. Time management is a learnable skill, and in this completely revised edition, Morgenstern provides the ultimate tools to combine, delegate, and eliminate unnecessary tasks; put technology to work; and stop procrastinating once and for all.

Format : MPEG-PS
File size : 1 024 MiB
Duration : 21mn 51s
Overall bit rate : 6 549 Kbps
Video #224
ID : 224 (0xE0)
Format : MPEG Video
Format version : Version 2
Format profile : Main@Main
Format settings, Matrix : Default
Duration : 21mn 51s
Bit rate mode : Constant
Bit rate : 6 065 Kbps
Nominal bit rate : 5 500 Kbps
Width : 720 pixels
Height : 480 pixels
Display aspect ratio : 4:3
Frame rate : 29.970 fps
Standard : NTSC
Colorimetry : 4:2:0
Scan type : Interlaced
Scan order : Top Field First
Bits/(Pixel*Frame) : 0.586
Stream size : 948 MiB (93%)
Audio #128
ID : 128 (0x80)
Format : AC-3
Format/Info : Audio Coding 3
Duration : 21mn 51s
Bit rate mode : Constant
Bit rate : 224 Kbps
Channel(s) : 2 channels
Channel positions : L R
Sampling rate : 48.0 KHz
Stream size : 35.0 MiB (3%)

Time Management From The Inside Out By Julie Morgenstern

Time Management From The Inside Out By Julie Morgenstern


Download Filesonic

http://www.filesonic.com/file/1042792941/Time Management From The Inside Out.part01.rar
http://www.filesonic.com/file/1042788191/Time Management From The Inside Out.part02.rar
http://www.filesonic.com/file/1042788161/Time Management From The Inside Out.part03.rar
http://www.filesonic.com/file/1042792771/Time Management From The Inside Out.part04.rar
http://www.filesonic.com/file/1042792761/Time Management From The Inside Out.part05.rar
http://www.filesonic.com/file/1042788101/Time Management From The Inside Out.part06.rar
http://www.filesonic.com/file/1042792831/Time Management From The Inside Out.part07.rar
http://www.filesonic.com/file/1042788131/Time Management From The Inside Out.part08.rar
http://www.filesonic.com/file/1042792851/Time Management From The Inside Out.part09.rar
http://www.filesonic.com/file/1042792781/Time Management From The Inside Out.part10.rar
http://www.filesonic.com/file/1042788061/Time Management From The Inside Out.part11.rar
http://www.filesonic.com/file/1042783061/Time Management From The Inside Out.part12.rar

Download Wupload

http://www.wupload.com/file/1511915/Time Management From The Inside Out.part01.rar
http://www.wupload.com/file/1511455/Time Management From The Inside Out.part02.rar
http://www.wupload.com/file/1511766/Time Management From The Inside Out.part03.rar
http://www.wupload.com/file/1511994/Time Management From The Inside Out.part04.rar
http://www.wupload.com/file/1511762/Time Management From The Inside Out.part05.rar
http://www.wupload.com/file/1512272/Time Management From The Inside Out.part06.rar
http://www.wupload.com/file/1512095/Time Management From The Inside Out.part07.rar
http://www.wupload.com/file/1512144/Time Management From The Inside Out.part08.rar
http://www.wupload.com/file/1512107/Time Management From The Inside Out.part09.rar
http://www.wupload.com/file/1512708/Time Management From The Inside Out.part10.rar
http://www.wupload.com/file/1512725/Time Management From The Inside Out.part11.rar
http://www.wupload.com/file/1512712/Time Management From The Inside Out.part12.rar


All Links Are Interchangeable, It Means You Can Download 1 From Filesonic,1 from Wupload. Thank you !

Download File

Here you can download files online. Unlimited access to all sources file with one click direct download link!
Share
  • Featured link
  • [21-05-2011]
thanks dear ;)

Comment