Tian Shen Zhuan 2013 1080p WEB-DL x264 AC3-SmY

P2P
Asia, Chinese. September 12, 2013 by Anonymous.


Tian Shen Zhuan 2013 1080p WEB-DL x264 AC3-SmY

天神传[泷泽萝拉]
Size: 0.98 GB Type: (Movies) Medium: WEB-DL Codec: H.264 Standard: 1080p

中文名: 天神传
类型: 爱情,奇幻,励志
出品时间: 2013年
出品公司: 芭乐传媒,机锋网
制片地区: 中国北京
导演: 雪涛
制片人: 庞梦倩 程品然
主演: 泷泽萝拉
片长: 35分钟
上映时间: 2013年7月
对白语言: 普通话

剧情简介:
阿机是一名酷爱手机游戏的屌丝气质的机友。此时,他正深夜的校园里一边裸奔一边探讨着什么才是真正爱的勇气。只见他脖子上挂着一条橙红色的机友围巾,下面穿着一条底裤裸奔过校园和街道,不在意同学的鄙视究竟是为了什么?小巫的出现彻底改变了阿机,使他有勇气去到瞳(胡丹丹饰)经常跳舞的天台去表白,然而他能否成功?为何他总是不能逃脱“高富帅”恋峰(程品然饰)的摆布?只能眼睁睁看着他腰上一条条白腿,对瞳感情的不在乎和不珍惜?善良有法力的小巫能否帮助阿机成功逆袭并收获美女芳心?然而小巫的代价又有谁知道,最终她失去了什么付出了什么?

日本著名人气女星泷泽萝拉于2013年7月19日从日本东京飞抵北京,开始了她的首次中国之旅。此次泷泽萝拉来中国,是接拍了国内首部游戏电影,机锋手机游戏同名电影《天神传》。这是泷泽萝拉首部中国电影的处女秀。
泷泽萝拉将担任《天神传》电影女主角,这是泷泽萝拉第一次来到中国,第一次接拍中国电影,制作方机锋专门为泷泽萝拉量身定制了剧本和角色。剧中,泷泽萝拉将饰演一名从《天神传》游戏穿越而来的性感女神,她将帮助一名屌丝机友男找到真我逆袭的真爱。据现场工作人员介绍,泷泽萝拉工作态度十分职业,无论对穿着还是造型动作都十分配合,亲和力十足。不少宅男看过照片声称,这才是自己心目中的女神。
据悉,此次泷泽萝拉牵手机锋,主演电影《天神传》费用高达七位数,电影制作也同样耗资数百万。相信此次泷泽萝拉的“第一次”电影处女秀,将取得开门大红。

Quote
Format : Matroska
File size : 1 006 MiB
Duration : 35mn 20s
Overall bit rate : 3 982 Kbps
Encoded date : UTC 2010-02-22 21:41:31
Writing application : mkvmerge v5.9.0 ('On The Loose') built on Dec 9 2012 15:37:01
Writing library : libebml v1.3.0 + libmatroska v1.4.0
Video #1
ID : 1
Format : AVC
Format/Info : Advanced Video Codec
Format profile : Main@L4.0
Format settings, CABAC : Yes
Format settings, ReFrames : 2 frames
Muxing mode : Header stripping
Codec ID : V_MPEG4/ISO/AVC
Duration : 35mn 20s
Bit rate : 3 582 Kbps
Width : 1 920 pixels
Height : 1 080 pixels
Display aspect ratio : 16:9
Frame rate mode : Variable
Frame rate : 25.000 fps
Color space : YUV
Chroma subsampling : 4:2:0
Bit depth : 8 bits
Scan type : Progressive
Bits/(Pixel*Frame) : 0.069
Stream size : 906 MiB (90%)
Audio #2
ID : 2
Format : AC-3
Format/Info : Audio Coding 3
Mode extension : CM (complete main)
Muxing mode : Header stripping
Codec ID : A_AC3
Duration : 35mn 20s
Bit rate mode : Constant
Bit rate : 320 Kbps
Channel(s) : 2 channels
Channel positions : Front: L R
Sampling rate : 44.1 KHz
Bit depth : 16 bits
Compression mode : Lossy
Stream size : 80.9 MiB (8%)

Download File

Datafile - Extabit

Here you can download files online. Unlimited access to all sources file with one click direct download link!
Share
  • Featured link
  • [12-09-2013]

Comment