The Truth About Average Guys 2009 DVDRip XviD-SPRiNTER

Movies. April 2, 2010 by CONFiG.
The Truth About Average Guys 2009 DVDRip XviD-SPRiNTER

The Truth About Average Guys 2009 DVDRip XviD-SPRiNTER | 697.19 MB


Genre : Comedy
User Rating : 3.0/10 (35 votes)
Director : Ken Gayton, Jason Schaver

Plot Outline :
An insecure man has his dimwitted actor friend pose as his mentally challenged brother in order to get to know a beautiful co-worker who has a mentally challenged sister.

Details

Format : AVI
Format/Info : Audio Video Interleave
File size : 697 MiB
Duration : 1h 22mn
Overall bit rate : 1 181 Kbps
Writing application : Nandub v1.0rc2
Writing library : Nandub build 1852/release

Video
ID : 0
Format : MPEG-4 Visual
Format profile : AdvancedSimpleL5
Format settings, BVOP : Yes
Format settings, QPel : No
Format settings, GMC : No warppoints
Format settings, Matrix : Default (H.263
Codec ID : XVID
Codec ID/Hint : XviD
Duration : 1h 22mn
Bit rate : 1 080 Kbps
Width : 640 pixels
Height : 352 pixels
Display aspect ratio : 16:9
Frame rate : 23.976 fps
Resolution : 24 bits
Colorimetry : 4:2:0
Scan type : Progressive
Bits/(PixelFrame) : 0.200
Stream size : 638 MiB (91
Writing library : XviD 1.2.1 (UTC 2008-12-04

Audio
ID : 1
Format : MPEG Audio
Format version : Version 1
Format profile : Layer 3
Codec ID : 55
Codec ID/Hint : MP3
Duration : 1h 22mn
Bit rate mode : Variable
Bit rate : 88.0 Kbps
Channel(s) : 1 channel
Sampling rate : 48.0 KHz
Resolution : 16 bits
Stream size : 52.0 MiB (7
Alignment : Aligned on interleaves
Interleave, duration : 24 ms (0.58 video frame
Interleave, preload duration : 189 ms
Writing library : LAME3.95

iMDB | NFO

Download
The.Truth.About.Average.Guys.2009.DVDRip.XviD-SPRiNTER

http://netload.in/dateiShBCzbO4Wb/downloadbox.org-sprinter-ttaag.part1.rar.htm
http://netload.in/datei5j6qFAYU9R/downloadbox.org-sprinter-ttaag.part2.rar.htm
http://netload.in/datei8YFP8qJTrr/downloadbox.org-sprinter-ttaag.part3.rar.htm
http://netload.in/datei2Ro87huwOD/downloadbox.org-sprinter-ttaag.part4.rar.htm

http://www.multiupload.com/YVD76RO6RB?file=downloadbox.org-sprinter-ttaag.part1.rar
http://www.multiupload.com/XOV6T8F2WM?file=downloadbox.org-sprinter-ttaag.part2.rar
http://www.multiupload.com/2SK9OB25FB?file=downloadbox.org-sprinter-ttaag.part3.rar
http://www.multiupload.com/LVOUEP3MW9?file=downloadbox.org-sprinter-ttaag.part4.rar

Download File

Here you can download files online. Unlimited access to all sources file with one click direct download link!
Share
  • Featured link
  • [2-04-2010]

Comment