The Road to El Dorado 2000 DVDRip DivX

Movies. April 9, 2011 by sykdL.

The Road to El Dorado 2000 DVDRip 690 MB
IMDB

Two swindlers get their hands on a map to the fabled city of gold, El Dorado.

omplete name                    : The.Road.to.El.Dorado[2000]DvDrip[Eng].avi
Format                           : AVI
Format/Info                      : Audio Video Interleave
File size                        : 659 MiB
Duration                         : 1h 29mn
Overall bit rate                 : 1 029 Kbps
Writing library                  : VirtualDub build 11759/release
Release date                     : 31 March 2000 (USA)
Subs                             : English
Genre                            : Animation | Adventure | Comedy

Video:
Format                           : MPEG-4 Visual
Codec ID                         : DIV3
Codec ID/Hint                    : DivX 3 Low
Duration                         : 1h 29mn
Bit rate                         : 892 Kbps
Width                            : 640 pixels
Height                           : 368 pixels
Display aspect ratio             : 16:9
Frame rate                       : 23.976 fps
Color space                      : YUV
Chroma subsampling               : 4:2:0
Bit depth                        : 8 bits
Compression mode                 : Lossy
Bits/(Pixel*Frame)               : 0.158
Stream size                      : 571 MiB


Audio:
Format                           : MPEG Audio
Format version                   : Version 1
Format profile                   : Layer 3
Mode                             : Joint stereo
Mode extension                   : MS Stereo
Codec ID                         : 55
Codec ID/Hint                    : MP3
Duration                         : 1h 29mn
Bit rate mode                    : Constant
Bit rate                         : 128 Kbps
Channel(s)                       : 2 channels
Sampling rate                    : 44.1 KHz
Compression mode                 : Lossy
Stream size                      : 81.7 MiB






http://www.filesonic.com/file/141918491/The.Rd.t.l.Drd.2000.lucky7t.rar

Download File

Here you can download files online. Unlimited access to all sources file with one click direct download link!
Share
  • Featured link
  • [9-04-2011]

Comment