The Rite 2011 DVDRip - PRESTiGE

Movies. April 14, 2011 by sykdL.

The Rite 2011 DVDRip - PRESTiGE | 700 MB

IMDB

Info

Format/Info : Audio Video Interleave
File size : 702 MiB
Duration : 1h 53mn
Overall bit rate : 863 Kbps


Video
ID : 0
Format : MPEG-4 Visual
Format profile : Advanced Simple@L5
Format settings, BVOP : Yes
Format settings, QPel : No
Format settings, GMC : No warppoints
Format settings, Matrix : Default (H.263)
Muxing mode : Packed bitstream
Codec ID : XVID
Codec ID/Hint : XviD
Duration : 1h 53mn
Bit rate : 662 Kbps
Width : 720 pixels
Height : 304 pixels
Display aspect ratio : 2.35:1
Frame rate : 25.000 fps
Color space : YUV
Chroma subsampling : 4:2:0
Bit depth : 8 bits
Scan type : Progressive
Compression mode : Lossy
Bits/(Pixel*Frame) : 0.121
Stream size : 538 MiB (77%)
Writing library : XviD 1.2.0.dev47 (UTC 2006-11-01)

Audio
ID : 1
Format : MPEG Audio
Format version : Version 1
Format profile : Layer 3
Mode : Joint stereo
Mode extension : MS Stereo
Codec ID : 55
Codec ID/Hint : MP3
Duration : 1h 53mn
Bit rate mode : Constant
Bit rate : 192 Kbps
Channel(s) : 2 channels
Sampling rate : 44.1 KHz
Compression mode : Lossy
Delay relative to video : 26ms
Stream size : 156 MiB (22%)
Alignment : Split accross interleaves
Interleave, duration : 40 ms (1.00 video frame)
Interleave, preload duration : 500 ms


http://www.imdb.com/title/tt1161864/

Cast
Anthony Hopkins ... Father Lucas Trevant
Colin O'Donoghue ... Michael Kovak
Alice Braga ... Angeline
Ciarán Hinds ... Father Xavier
Toby Jones ... Father Matthew
Rutger Hauer ... Istvan Kovak
Marta Gastini ... Rosaria
Maria Grazia Cucinotta ... Aunt Andria
Arianna Veronesi ... Francesca
Andrea Calligari ... Vincenzo
Chris Marquette ... Eddie
Torrey DeVitto ... Nina
Ben Cheetham ... Young Michael






Filesonic Download | Single Link
http://www.filesonic.com/file/661094564/The.Rite.2011.Dvdrip.PRESTiGE_sykdL.rar

Download File

Here you can download files online. Unlimited access to all sources file with one click direct download link!
Share
  • Featured link
  • [14-04-2011]

Comment