The Lincoln Lawyer 2011 TS XViD DTRG SAFCuk009

Movies. April 20, 2011 by baby.


The Lincoln Lawyer 2011 TS XViD DTRG SAFCuk009

http://www.imdb.com/title/tt1189340/


Format : AVI
Format/Info : Audio Video Interleave
File size : 1.09 GiB
Duration : 1h 45mn
Overall bit rate : 1 477 Kbps
Writing library : VirtualDub build 32839/release

Video
ID : 0
Format : MPEG-4 Visual
Format profile : Advanced Simple@L5
Format settings, BVOP : Yes
Format settings, QPel : No
Format settings, GMC : No warppoints
Format settings, Matrix : Custom
Codec ID : XVID
Codec ID/Hint : XviD
Duration : 1h 45mn
Bit rate : 1 339 Kbps
Width : 720 pixels
Height : 304 pixels
Display aspect ratio : 2.35:1
Frame rate : 25.000 fps
Color space : YUV
Chroma subsampling : 4:2:0
Bit depth : 8 bits
Scan type : Progressive
Bits/(Pixel*Frame) : 0.245
Stream size : 1 015 MiB (91%)
Writing library : XviD 1.2.1 (UTC 2008-12-04)

Audio
ID : 1
Format : MPEG Audio
Format version : Version 1
Format profile : Layer 3
Mode : Joint stereo
Mode extension : MS Stereo
Codec ID : 55
Codec ID/Hint : MP3
Duration : 1h 45mn
Bit rate mode : Constant
Bit rate : 128 Kbps
Channel(s) : 2 channels
Sampling rate : 44.1 KHz
Stream size : 97.0 MiB (9%)
Alignment : Split accross interleaves
Interleave, duration : 40 ms (1.00 video frame)
Interleave, preload duration : 500 ms
Writing library : LAME3.98r
Encoding settings : -m j -V 4 -q 2 -lowpass 17 -b 128




Download
http://www.filesonic.com/file/794852891/The Lincoln Lawyer 2011 TS XViD DTRG--baby.downloadbox.ORG.part1.rar
http://www.filesonic.com/file/794852901/The Lincoln Lawyer 2011 TS XViD DTRG--baby.downloadbox.ORG.part2.rar
http://www.filesonic.com/file/794852881/The Lincoln Lawyer 2011 TS XViD DTRG--baby.downloadbox.ORG.part3.rar

or

http://www.filesonic.com/file/794837401/The_Lincoln_Lawyer_2011_TS_XViD_DTRG--baby.downloadbox.ORG.avi
http://www.fileserve.com/file/3C55Tah/The_Lincoln_Lawyer_2011_TS_XViD_DTRG--baby.downloadbox.ORG.avi
http://www.duckload.com/download/4812193/The_Lincoln_Lawyer_2011_TS_XViD_DTRG--baby.downloadbox.ORG.avi
http://netload.in/dateiIctEpzevhu/The Lincoln Lawyer 2011 TS XViD DTRG--baby.downloadbox.ORG.avi.htm
http://www.multiupload.com/P2SI1P1IA0
https://rapidshare.com/files/458305950/The_Lincoln_Lawyer_2011_TS_XViD_DTRG--baby.downloadbox.ORG.avi


Download File



Here you can download files online. Unlimited access to all sources file with one click direct download link!
Share
  • Featured link
  • [20-04-2011]
The Lincoln Lawyer (2011) TS XViD DTRG SAFCuk009

----------------------------
Single Links (Premium users only)
----------------------------

- My Upload.
- Working 100%.
- No password.


http://www.filesonic.com/file/795153741/TLnclnLwyr_2011_TS_XViD_DTRG.avi

-----
Screens
-----

http://lulzimg.com/i18/5708dc0d.jpg

Comment