The Imaginarium of Doctor Parnassus (2009) DVDScr XviD-420

Movies. January 21, 2010 by Dizel.
The Imaginarium of Doctor Parnassus (2009) DVDScr XviD-420

The Imaginarium of Doctor Parnassus (2009) DVDScr XviD-420
DVDScr | English | 1h 54mn | 624x336 | XviD 659 Kbps | MP3 128 Kbps | 657 Mb
Genre: Adventure | Fantasy | Mystery

In the present day, immortal thousand-year-old Doctor Parnassus (Christopher Plummer) leads a travelling theatre troupe—including a sleight of hand expert, Anton (Andrew Garfield), and a dwarf, Percy (Verne Troyer)—that offers audience members a chance to go beyond reality through a magical mirror in his possession. Parnassus had been able to guide the imagination of others through a deal with the Devil (Tom Waits), who now comes to collect on the arrangement, targeting the doctor's daughter, Valentina (Lily Cole). The troupe, which is joined by a mysterious outsider named Tony (Colin Farrell) (Jude Law) (Johnny Depp), embark through parallel worlds to rescue the girl.

Download links:

Letitbit
Download from Letitbit

Uploading
Part1
Part2
Part3
Part4

RapidShare
Part1
Part2
Part3
Part4

Download File

Here you can download files online. Unlimited access to all sources file with one click direct download link!
Share
  • Featured link
  • [21-01-2010]
Video
ID : 0
Format : MPEG-4 Visual
Format profile : AdvancedSimple@L5
Format settings, BVOP : Yes
Format settings, QPel : No
Format settings, GMC : No warppoints
Format settings, Matrix : Default (H.263)
Codec ID : XVID
Codec ID/Hint : XviD
Duration : 1h 54mn
Bit rate : 663 Kbps
Width : 624 pixels
Height : 336 pixels
Display aspect ratio : 1.857
Frame rate : 24.000 fps
Original frame rate : 25.000 fps
Resolution : 24 bits
Colorimetry : 4:2:0
Scan type : Progressive
Bits/(Pixel*Frame) : 0.132
Stream size : 544 MiB (83%)
Writing library : XviD 1.2.1 (UTC 2008-12-04)

Audio
ID : 1
Format : MPEG Audio
Format version : Version 1
Format profile : Layer 3
Codec ID : 55
Codec ID/Hint : MP3
Duration : 1h 54mn
Bit rate mode : Constant
Bit rate : 128 Kbps
Channel(s) : 2 channels
Sampling rate : 48.0 KHz
Resolution : 16 bits
Video delay : 12ms
Stream size : 105 MiB (16%)
Alignment : Split accross interleaves
Interleave, duration : 42 ms (1.00 video frame)
Interleave, preload duration : 500 ms

thanks to Madd_Skillz & trackeraccess.org
Here's the dvdscr with english cam audio...ive seen another english copy floatin around but its way outta sync...so enjoy the one that is syncd correctly...enjoy

credit to hndofgod & redchaos2354 & to all the people who made it possible for me to share this with everyone
k.. cool.. wink
  • CONFiG
  • [21 January 2010 11:06]
winked


CONFiG, serving downloadbox since 2008 !

sample bro........

Comment