The First World War 2003 DVDrip.DivX-TvT

TV Shows. April 9, 2011 by sykdL.
THE FIRST WORLD WAR is based on the best-selling book by Professor Hew Strachan, Chichele Professor of the History of War at Oxford University and Visiting Professor at the University of Glasgow.

Episode list:

1. TO ARMS 1914
The complex origins of the Great War, and how seemingly insignificant local tensions in the Balkans exploded into World War.

2. UNDER THE EAGLE 1914-1915
The German invasion of Belgium and France was brutal and atrocities fanned the flames of war.

3. GLOBAL WAR 1914-1916
The European empires clashed all across the world, from the South Atlantic Seas to the planes of Africa.

4. JIHAD 1914-1916
The Turkish Ottoman Empire proved a formidable foe, as the Allies found to their cost at Gallipoli and in the Middle East.

As the Germans and Austrians clashed with The Russians on the bitter Eastern Front, Italy became embroiled in a terrible slaughter.

The Somme and Verdun saw carnage on an unprecedented scale, as armies fought to break the stalemate on the Western Front.

7. BLOCKADE 1916-1917
The war at sea was every bit as bitter as the war on land. The battle at Jutland proved inconclusive but the U-Boat menace threatened Britain as never before. Meanwhile, America entered the war.


The effect of the Great War shattered nations, inspired mass mutinies by desperate troops, caused great upheaval on the home front and changed the world forever.

Over one million German troops were committed to Kaiserschlacht - the last great offensive of the war - while conflict still raged on many other fronts.

The dramatic Allied victory at Amiens led to victory in just 100 days - and the signing of a bitterly-resented peace, while other nations stumbled towards their own ceasefire agreements.

Format : DivX
Format/Info : Hack of AVI
File size : 518 MiB
Duration : 50mn 7s
Overall bit rate : 1 444 Kbps

ID : 0
Format : MPEG-4 Visual
Format settings, BVOP : 1
Format settings, QPel : No
Format settings, GMC : No warppoints
Format settings, Matrix : Default (H.263)
Muxing mode : Packed bitstream
Codec ID : DX50
Codec ID/Hint : DivX 5
Duration : 50mn 7s
Bit rate : 1 300 Kbps
Width : 704 pixels
Height : 400 pixels
Display aspect ratio : 16:9
Frame rate : 25.000 fps
Color space : YUV
Chroma subsampling : 4:2:0
Bit depth : 8 bits
Scan type : Progressive
Compression mode : Lossy
Bits/(Pixel*Frame) : 0.185
Stream size : 466 MiB (90%)
Title : Video
Writing library : DivX 6.1.1 (UTC 2006-02-01)

ID : 1
Format : MPEG Audio
Format version : Version 1
Format profile : Layer 3
Mode : Dual mono
Codec ID : 55
Codec ID/Hint : MP3
Duration : 50mn 7s
Bit rate mode : Constant
Bit rate : 128 Kbps
Channel(s) : 2 channels
Sampling rate : 44.1 KHz
Compression mode : Lossy
Stream size : 45.9 MiB (9%)
Alignment : Split accross interleaves
Interleave, duration : 40 ms (1.00 video frame)
Interleave, preload duration : 500 ms
Title : Audio - en

ID : 2
Format : DivX Subtitle
Codec ID : DXSB
Codec ID/Info : Subtitle in AVI from DivX networks
Width : 640 pixels
Height : 480 pixels
Bit depth : 4 bits
Stream size : 1.99 MiB (0%)

Filesonic Download
Watch Tv shows online. Download videos The First World War 2003 DVDrip.DivX-TvT - unlimited stream access anywhere.

Download File

  • Featured link
  • [9-04-2011]