The Change Up 2011 CAM Xvid AC3-SiC

Movies. August 14, 2011 by Anonymous.


The Change Up 2011 CAM Xvid AC3-SiC

Description:
A comedy in which a married father accidentally switches bodies with his best friend, leading to a series of wildly complex difficulties

The Change-Up (2011)

MediaInfo:
General
Complete name : The.Change.Up.2011.CAM.Xvid.AC3-SiC.avi
Format : AVI
Format/Info : Audio Video Interleave
File size : 1.09 GiB
Duration : 1h 46mn
Overall bit rate : 1 465 Kbps

Video
ID : 0
Format : MPEG-4 Visual
Format profile : Advanced Simple@L5
Format settings, BVOP : Yes
Format settings, QPel : No
Format settings, GMC : No warppoints
Format settings, Matrix : Default (H.263)
Muxing mode : Packed bitstream
Codec ID : XVID
Codec ID/Hint : XviD
Duration : 1h 46mn
Bit rate : 1 328 Kbps
Width : 640 pixels
Height : 304 pixels
Display aspect ratio : 2.2:1
Frame rate : 29.000 fps
Resolution : 8 bits
Colorimetry : 4:2:0
Scan type : Progressive
Bits/(Pixel*Frame) : 0.235
Stream size : 1 016 MiB (91%)
Writing library : XviD 64

Audio
ID : 1
Format : AC-3
Format/Info : Audio Coding 3
Format_Settings_ModeExtension : CM (complete main)
Codec ID : 2000
Duration : 1h 46mn
Bit rate mode : Constant
Bit rate : 128 Kbps
Channel(s) : 2 channels
Channel positions : Front: L R
Sampling rate : 48.0 KHz
Stream size : 97.9 MiB (9%)
Alignment : Aligned on interleaves
Interleave, duration : 64 ms (1.86 video frames)
Interleave, preload duration : 192 ms
Title : 2ch English

Source : video and audio ERDNA Thanks!!!

Encoder: Bezauk
http://www.imdb.com/title/tt1488555/
Screenshot(s):








Video Sample

download from:

http://www.wupload.com/file/96505456/The.Ch--ang-e.Up.2011.CAM.Xvid.AC3-SiC.part1.rar
http://www.wupload.com/file/96505452/The.Ch--ang-e.Up.2011.CAM.Xvid.AC3-SiC.part2.rar
http://www.wupload.com/file/96505113/The.Ch--ang-e.Up.2011.CAM.Xvid.AC3-SiC.part3.rar

http://www.filesonic.com/file/1672858001/The.Ch--ang-e.Up.2011.CAM.Xvid.AC3-SiC.part1.rar
http://www.filesonic.com/file/1672857931/The.Ch--ang-e.Up.2011.CAM.Xvid.AC3-SiC.part2.rar
http://www.filesonic.com/file/1672857861/The.Ch--ang-e.Up.2011.CAM.Xvid.AC3-SiC.part3.rar

http://www.fileserve.com/file/X3M8fWf/The.Ch--ang-e.Up.2011.CAM.Xvid.AC3-SiC.part1.rar
http://www.fileserve.com/file/Dc7J8Bk/The.Ch--ang-e.Up.2011.CAM.Xvid.AC3-SiC.part2.rar
http://www.fileserve.com/file/5RCtfsT/The.Ch--ang-e.Up.2011.CAM.Xvid.AC3-SiC.part3.rar

https://rapidshare.com/files/1232038242/The.Ch--ang-e.Up.2011.CAM.Xvid.AC3-SiC.part1.rar
https://rapidshare.com/files/55248321/The.Ch--ang-e.Up.2011.CAM.Xvid.AC3-SiC.part2.rar
https://rapidshare.com/files/8654652/The.Ch--ang-e.Up.2011.CAM.Xvid.AC3-SiC.part3.rar

Download File

Here you can download files online. Unlimited access to all sources file with one click direct download link!
Share
  • Featured link
  • [14-08-2011]

Comment