The Bounty Hunter (2010) CAM XviD RUS-NoGrp

Movies. March 21, 2010 by CONFiG.
The Bounty Hunter (2010) CAM XviD RUS-NoGrp


The Bounty Hunter 2010 CAM XviD RUS-NoGrp | 703.11 MB


iMBD Rating: 4.9/10 799 votes
Genre: Action | Comedy | Romance

Format : AVI
Format/Info : Audio Video Interleave
File size : 703 MiB
Duration : 1h 44mn
Overall bit rate : 945 Kbps
Writing application : VirtualDubMod 1.5.10.2 (build 2540/release)
Writing library : VirtualDubMod build 2540/release

Video
Format : MPEG-4 Visual
Format profile : Streaming Video@L1
Format settings, BVOP : Yes
Format settings, QPel : No
Format settings, GMC : No warppoints
Format settings, Matrix : Default (MPEG)
Muxing mode : Packed bitstream
Codec ID : XVID
Codec ID/Hint : XviD
Duration : 1h 44mn
Bit rate : 807 Kbps
Width : 640 pixels
Height : 272 pixels
Display aspect ratio : 2.35
Frame rate : 25.000 fps
Resolution : 24 bits
Colorimetry : 4:2:0
Scan type : Progressive
Bits/(Pixel*Frame) : 0.185
Stream size : 601 MiB (85%)
Writing library : XviD 1.2.1 (UTC 2008-12-04)

Audio
Format : MPEG Audio
Format version : Version 1
Format profile : Layer 3
Codec ID : 55
Codec ID/Hint : MP3
Duration : 1h 44mn
Bit rate mode : Constant
Bit rate : 128 Kbps
Channel(s) : 2 channels
Sampling rate : 48.0 KHz
Resolution : 16 bits
Stream size : 95.2 MiB (14%)
Alignment : Aligned on interleaves
Interleave, duration : 40 ms (1.00 video frame)
Interleave, preload duration : 504 ms

The Bounty Hunter (2010) CAM XviD RUS-NoGrp
The Bounty Hunter (2010) CAM XviD RUS-NoGrp
iMDB

Download

http://hotfile.com/dl/33914231/2a9418a/downloadbox.org-The.Bounty.Hunter.2010.CAM.XviD.RUS-NoGrp.part1.rar.html
http://hotfile.com/dl/33914213/19e36cc/downloadbox.org-The.Bounty.Hunter.2010.CAM.XviD.RUS-NoGrp.part2.rar.html
http://hotfile.com/dl/33914312/00fae66/downloadbox.org-The.Bounty.Hunter.2010.CAM.XviD.RUS-NoGrp.part3.rar.html
http://hotfile.com/dl/33914346/d3df957/downloadbox.org-The.Bounty.Hunter.2010.CAM.XviD.RUS-NoGrp.part4.rar.html

http://www.share-online.biz/download.php?id=AXV8BNZKDI6&name=downloadbox.org-The.Bounty.Hunter.2010.CAM.XviD.RUS-NoGrp.part1.rar
http://www.share-online.biz/download.php?id=VVW5BNZKCA&name=downloadbox.org-The.Bounty.Hunter.2010.CAM.XviD.RUS-NoGrp.part2.rar
http://www.share-online.biz/download.php?id=CZV7BNZKO63&name=downloadbox.org-The.Bounty.Hunter.2010.CAM.XviD.RUS-NoGrp.part3.rar
http://www.share-online.biz/download.php?id=RSZ7BNZKU6U&name=downloadbox.org-The.Bounty.Hunter.2010.CAM.XviD.RUS-NoGrp.part4.rar

http://rapidshare.com/files/366383971/downloadbox.org-The.Bounty.Hunter.2010.CAM.XviD.RUS-NoGrp.part1.rar
http://rapidshare.com/files/366384044/downloadbox.org-The.Bounty.Hunter.2010.CAM.XviD.RUS-NoGrp.part2.rar
http://rapidshare.com/files/366384076/downloadbox.org-The.Bounty.Hunter.2010.CAM.XviD.RUS-NoGrp.part3.rar
http://rapidshare.com/files/366383498/downloadbox.org-The.Bounty.Hunter.2010.CAM.XviD.RUS-NoGrp.part4.rar

http://www.share-online.biz/download.php?id=K1XH6QZKIC&name=downloadbox.org-Bounty.HCAM.XviD.RUS-NoGrp.part1.rar
http://www.share-online.biz/download.php?id=9B1I6QZKW850&name=downloadbox.org-Bounty.HCAM.XviD.RUS-NoGrp.part2.rar
http://www.share-online.biz/download.php?id=DDXJ6QZKJJ23&name=downloadbox.org-Bounty.HCAM.XviD.RUS-NoGrp.part3.rar
http://www.share-online.biz/download.php?id=8BYK6QZKRJ0&name=downloadbox.org-Bounty.HCAM.XviD.RUS-NoGrp.part4.rar

http://hotfile.com/dl/34149496/b9e9106/downloadbox.org-Bounty.HCAM.XviD.RUS-NoGrp.part1.rar.html
http://hotfile.com/dl/34149475/b719fc0/downloadbox.org-Bounty.HCAM.XviD.RUS-NoGrp.part2.rar.html
http://hotfile.com/dl/34149703/de81e9e/downloadbox.org-Bounty.HCAM.XviD.RUS-NoGrp.part3.rar.html
http://hotfile.com/dl/34149593/79df225/downloadbox.org-Bounty.HCAM.XviD.RUS-NoGrp.part4.rar.html

http://rapidshare.com/files/367048204/downloadbox.org-Bounty.HCAM.XviD.RUS-NoGrp.part1.rar
http://rapidshare.com/files/367048225/downloadbox.org-Bounty.HCAM.XviD.RUS-NoGrp.part2.rar
http://rapidshare.com/files/367048275/downloadbox.org-Bounty.HCAM.XviD.RUS-NoGrp.part3.rar
http://rapidshare.com/files/367048254/downloadbox.org-Bounty.HCAM.XviD.RUS-NoGrp.part4.rar

password: www.downloadbox.org

Download File

Here you can download files online. Unlimited access to all sources file with one click direct download link!
Share
  • Featured link
  • [21-03-2010]

Comment