The Bounty Hunter 2010 Cam Eng-LU

Movies. March 23, 2010 by CONFiG.
The Bounty Hunter 2010 Cam Eng-LU


The Bounty Hunter 2010 Cam Eng-LU | 861.53 MB


iMBD Rating: 4.8/10 1,040 votes
Genre: Action | Comedy | Romance

General
Complete name : The Bounty Hunter.2010.Cam.Eng.Lu
Format : AVI
Format/Info : Audio Video Interleave
File size : 862 MiB
Duration : 1h 45mn
Overall bit rate : 1 138 Kbps

Video
ID : 0
Format : MPEG-4 Visual
Format settings, BVOP : Yes
Format settings, QPel : No
Format settings, GMC : No warppoints
Format settings, Matrix : Default (H.263)
Muxing mode : Packed bitstream
Codec ID : DX50
Codec ID/Hint : DivX 5
Duration : 1h 45mn
Bit rate : 1 000 Kbps
Width : 640 pixels
Height : 272 pixels
Display aspect ratio : 2.35:1
Frame rate : 24.577 fps
Resolution : 8 bits
Colorimetry : 4:2:0
Scan type : Progressive
Bits/(Pixel*Frame) : 0.234
Stream size : 757 MiB (88%)
Title : Video
Writing library : DivX 6.8.5 (UTC 2009-08-20)

Audio
ID : 1
Format : MPEG Audio
Format version : Version 1
Format profile : Layer 3
Mode : Joint stereo
Format_Settings_ModeExtension : MS Stereo
Codec ID : 55
Codec ID/Hint : MP3
Duration : 1h 45mn
Bit rate mode : Constant
Bit rate : 128 Kbps
Channel(s) : 2 channels
Sampling rate : 48.0 KHz
Stream size : 96.9 MiB (11%)
Alignment : Split accross interleaves
Interleave, duration : 41 ms (1.00 video frame)
Interleave, preload duration : 500 ms
Title : Audio

The Bounty Hunter 2010 Cam Eng-LU
Notes
video not bad , cleaned up a bit, has head lower right but doesnt
take away from the movie.
Audio nothing special figure add some english cam audio, until something
else comes out.
Enjoy


iMDB | NFO | Sample

Download

http://www.share-online.biz/download.php?id=FQ814QZK1KIP&name=downloadbox.org-The.Bounty.Hunter.2010.Cam.Eng.Lu.part1.rar
http://www.share-online.biz/download.php?id=N8B14QZKQGVD&name=downloadbox.org-The.Bounty.Hunter.2010.Cam.Eng.Lu.part2.rar
http://www.share-online.biz/download.php?id=DAM64QZKL0&name=downloadbox.org-The.Bounty.Hunter.2010.Cam.Eng.Lu.part3.rar
http://www.share-online.biz/download.php?id=5QN44QZKIRH&name=downloadbox.org-The.Bounty.Hunter.2010.Cam.Eng.Lu.part4.rar
http://www.share-online.biz/download.php?id=8PO54QZK13U&name=downloadbox.org-The.Bounty.Hunter.2010.Cam.Eng.Lu.part5.rar

http://hotfile.com/dl/34142639/0684034/downloadbox.org-The.Bounty.Hunter.2010.Cam.Eng.Lu.part1.rar.html
http://hotfile.com/dl/34142588/9e1f4f5/downloadbox.org-The.Bounty.Hunter.2010.Cam.Eng.Lu.part2.rar.html
http://hotfile.com/dl/34142626/ae48b63/downloadbox.org-The.Bounty.Hunter.2010.Cam.Eng.Lu.part3.rar.html
http://hotfile.com/dl/34142853/52263e0/downloadbox.org-The.Bounty.Hunter.2010.Cam.Eng.Lu.part4.rar.html
http://hotfile.com/dl/34142736/3de96f6/downloadbox.org-The.Bounty.Hunter.2010.Cam.Eng.Lu.part5.rar.html

http://rapidshare.com/files/367032333/downloadbox.org-The.Bounty.Hunter.2010.Cam.Eng.Lu.part1.rar
http://rapidshare.com/files/367032317/downloadbox.org-The.Bounty.Hunter.2010.Cam.Eng.Lu.part2.rar
http://rapidshare.com/files/367032602/downloadbox.org-The.Bounty.Hunter.2010.Cam.Eng.Lu.part3.rar
http://rapidshare.com/files/367032770/downloadbox.org-The.Bounty.Hunter.2010.Cam.Eng.Lu.part4.rar
http://rapidshare.com/files/367032626/downloadbox.org-The.Bounty.Hunter.2010.Cam.Eng.Lu.part5.rar

--

http://x7.to/sm8k8q/www.downloadbox.org-The.Bounty.Hunter.2010.Cam.Eng.Lu.avi

http://www.share-online.biz/download.php?id=PUY2240LQ01K&name=downloadbox.org-T.B.H.2010.Cam.Eng.Lu.part1.rar
http://www.share-online.biz/download.php?id=VRP3240LHET&name=downloadbox.org-T.B.H.2010.Cam.Eng.Lu.part2.rar
http://www.share-online.biz/download.php?id=LA35240L35VQ&name=downloadbox.org-T.B.H.2010.Cam.Eng.Lu.part3.rar
http://www.share-online.biz/download.php?id=EHO5240LTH&name=downloadbox.org-T.B.H.2010.Cam.Eng.Lu.part4.rar
http://www.share-online.biz/download.php?id=LKW3240LP0H&name=downloadbox.org-T.B.H.2010.Cam.Eng.Lu.part5.rar

http://hotfile.com/dl/35473580/472afdb/downloadbox.org-T.B.H.2010.Cam.Eng.Lu.part1.rar.html
http://hotfile.com/dl/35473241/bd32ca5/downloadbox.org-T.B.H.2010.Cam.Eng.Lu.part2.rar.html
http://hotfile.com/dl/35473367/883d72b/downloadbox.org-T.B.H.2010.Cam.Eng.Lu.part3.rar.html
http://hotfile.com/dl/35473351/d206b3d/downloadbox.org-T.B.H.2010.Cam.Eng.Lu.part4.rar.html
http://hotfile.com/dl/35473398/e3c81bf/downloadbox.org-T.B.H.2010.Cam.Eng.Lu.part5.rar.html

Download File

Here you can download files online. Unlimited access to all sources file with one click direct download link!
Share
  • Featured link
  • [23-03-2010]

Comment