Strawberry Shortcake Puttin On The Glitz 2011 DVDRip Xvid

Movies. June 1, 2011 by pletyx.
Strawberry Shortcake Puttin On The Glitz 2011 DVDRip Xvid

Strawberry Shortcake Puttin On The Glitz 2011 DVDRip Xvid
Fabulous new fashions, sparkling musical "Glamicures" and delightful new "Do's" have Strawberry and her friends "Puttin' on the Glitz"! But, all that dazzles quickly unravels with misunderstanding... until the girls find creative and kind ways to be honest with their feelings... and with their friends. It's heart-to-heart makeover magic... as the girls learn that nothing looks as beautiful as friendship feels.

IMDB
Format;AVI
File Size:905mb

Video
ID : 0
Format : MPEG-4 Visual
Format profile : Advanced Simple@L5
Format settings, BVOP : Yes
Format settings, QPel : No
Format settings, GMC : No warppoints
Format settings, Matrix : Custom
Codec ID : XVID
Codec ID/Hint : XviD
Duration : 1h 6mn
Bit rate : 1 716 Kbps
Width : 700 pixels
Height : 384 pixels
Display aspect ratio : 16:9
Frame rate : 29.970 fps
Color space : YUV
Chroma subsampling : 4:2:0
Bit depth : 8 bits
Scan type : Progressive
Bits/(Pixel*Frame) : 0.213
Stream size : 812 MiB (90%)
Writing library : XviD 1.2.1 (UTC 2008-12-04)

Audio
ID : 1
Format : AC-3
Format/Info : Audio Coding 3
Format profile : Dolby Digital
Mode extension : CM (complete main)
Codec ID : 2000
Duration : 1h 6mn
Bit rate mode : Constant
Bit rate : 192 Kbps
Channel(s) : 2 channels
Channel positions : Front: L R
Sampling rate : 48.0 KHz
Bit depth : 16 bits
Stream size : 90.8 MiB (10%)
Alignment : Aligned on interleaves
Interleave, duration : 480 ms (14.38 video frames)
Interleave, preload duration : 960 ms
Duration:1:06
Release Date:2011
Language:English

Screenshot
Strawberry Shortcake Puttin On The Glitz 2011 DVDRip Xvid

Download:

Fileserve
http://www.fileserve.com/file/tXAJ67W/sspotg.part1.rar
http://www.fileserve.com/file/SDCBvfA/sspotg.part2.rar
http://www.fileserve.com/file/UXk5KY9/sspotg.part3.rar
http://www.fileserve.com/file/q7NuHgD/sspotg.part4.rar


Filesonic
http://www.filesonic.com/file/1100851471/sspotg.part1.rar
http://www.filesonic.com/file/1100849684/sspotg.part2.rar
http://www.filesonic.com/file/1100844691/sspotg.part3.rar
http://www.filesonic.com/file/1100841414/sspotg.part4.rar


Wupload
http://www.wupload.com/file/5182417
http://www.wupload.com/file/5182432
http://www.wupload.com/file/5182424
http://www.wupload.com/file/5182231


Uploadstation
http://www.uploadstation.com/file/zBKWjuu/sspotg.part1.rar
http://www.uploadstation.com/file/EBbJtUh/sspotg.part2.rar
http://www.uploadstation.com/file/pfEvJ5T/sspotg.part3.rar
http://www.uploadstation.com/file/UM2srs2/sspotg.part4.rar


Piggyshare
http://piggyshare.com/file/ptv3oefu/sspotg.part1.rar
http://piggyshare.com/file/ptv3oef9/sspotg.part2.rar
http://piggyshare.com/file/ptv3oefy/sspotg.part3.rar
http://piggyshare.com/file/ptv3oeff/sspotg.part4.rar

Download File

Here you can download files online. Unlimited access to all sources file with one click direct download link!
Share
  • Featured link
  • [1-06-2011]

Comment