Shark City 2009 DVDRip XviD-SPRiNTER

Movies. April 3, 2010 by CONFiG.
Shark City 2009 DVDRip XviD-SPRiNTER

Shark City 2009 DVDRip XviD-SPRiNTER | 698.99 MB


Shark City (2009)
Genre: Comedy, Drama
User Rating: 3.2/10 (25 votes)

Plot Outline:
Dagen and Kenny are two best friends in their early thirties living in New York who are looking for love in all the wrong places...

Details

Format : AVI
Format/Info : Audio Video Interleave
File size : 699 MiB
Duration : 1h 26mn
Overall bit rate : 1 125 Kbps
Writing application : Nandub v1.0rc2
Writing library : Nandub build 1852/release

Video
ID : 0
Format : MPEG-4 Visual
Format profile : Advanced SimpleL5
Format settings, BVOP : Yes
Format settings, QPel : No
Format settings, GMC : No warppoints
Format settings, Matrix : Default (H.263
Codec ID : XVID
Codec ID/Hint : XviD
Duration : 1h 26mn
Bit rate : 1 006 Kbps
Width : 608 pixels
Height : 256 pixels
Display aspect ratio : 2.35:1
Frame rate : 23.976 fps
Resolution : 8 bits
Colorimetry : 4:2:0
Scan type : Progressive
Bits/(PixelFrame) : 0.269
Stream size : 625 MiB (89
Writing library : XviD 1.2.1 (UTC 2008-12-04

Audio
ID : 1
Format : MPEG Audio
Format version : Version 1
Format profile : Layer 3
Codec ID : 55
Codec ID/Hint : MP3
Duration : 1h 26mn
Bit rate mode : Variable
Bit rate : 107 Kbps
Minimum bit rate : 80.0 Kbps
Channel(s) : 2 channels
Sampling rate : 48.0 KHz
Stream size : 66.5 MiB (10
Alignment : Aligned on interleaves
Interleave, duration : 24 ms (0.58 video frame
Interleave, preload duration : 369 ms
Writing library : LAME3.95
Encoding settings : -m s -V 6 -q 3 -lowpass 16 --vbr-old -b 80


iMDB | NFO

Download
Shark.City.2009.DVDRip.XviD-SPRiNTER

http://www.share-online.biz/download.php?id=C20QTA0LWA&name=downloadbox.org-sprinter-xvid-sharkcity.part1.rar
http://www.share-online.biz/download.php?id=AXDPTA0L737&name=downloadbox.org-sprinter-xvid-sharkcity.part2.rar
http://www.share-online.biz/download.php?id=BYFPTA0LD8T&name=downloadbox.org-sprinter-xvid-sharkcity.part3.rar
http://www.share-online.biz/download.php?id=BZQQTA0LF4N8&name=downloadbox.org-sprinter-xvid-sharkcity.part4.rar

http://www.multiupload.com/HKCK823EHU?file=downloadbox.org-sprinter-xvid-sharkcity.part1.rar
http://www.multiupload.com/G76MLP6GP0?file=downloadbox.org-sprinter-xvid-sharkcity.part2.rar
http://www.multiupload.com/T3ZFLES38G?file=downloadbox.org-sprinter-xvid-sharkcity.part3.rar
http://www.multiupload.com/AGF5PLOR7J?file=downloadbox.org-sprinter-xvid-sharkcity.part4.rar

Download File

Here you can download files online. Unlimited access to all sources file with one click direct download link!
Share
  • Featured link
  • [3-04-2010]

Comment