Scream 4 2011 BRRip XViD -TVAL

Movies, BRRip. August 7, 2011 by Jolge.
Scream 4 2011 BRRip XViD -TVAL

Scream 4 2011 BRRip XViD -TVAL | 1.1 GB


PLOT: Sidney Prescott, now the author of a self-help book, returns home to Woodsboro on the last stop of her book tour. There she reconnects with Sheriff Dewey and Gale, who are now married, as well as her cousin Jill and her Aunt Kate. Unfortunately, Sidney's appearance also brings about the return of Ghostface, putting Sidney, Gale, and Dewey, along with Jill, her friends, and the whole town of Woodsboro in danger.
General Information
-------------------------------------------------------------------------------
Type.................: Movie
Platform.............: BRRip
Part Size............: 1,213,928,922 bytes



Video Format.........: AVI
Source...............: 720p Crossbow thank!
Genre................: Horror | Mystery | Thriller
IMDb Rating..........: 6.8
IMDB: http://www.imdb.com/title/tt1262416/

-------------------------------------------------------------------------------
Release Notes
-------------------------------------------------------------------------------


Complete name : Scream 4 2011BRRip -TVAL.avi
Format : AVI
Format/Info : Audio Video Interleave
File size : 1.13 GiB
Duration : 1h 50mn
Overall bit rate : 1 462 Kbps
Writing application : TMPGEnc Video Mastering Works 5 Version.
5.0.5.32
Writing library : TMPGEnc Video Mastering Works 5 Version.
5.0.5.32

Video
ID : 0
Format : MPEG-4 Visual
Format profile : Advanced Simple@L5
Format settings, BVOP : Yes
Format settings, QPel : No
Format settings, GMC : No warppoints
Format settings, Matrix : Default (H.263)
Codec ID : XVID
Codec ID/Hint : XviD
Duration : 1h 50mn
Bit rate : 1 326 Kbps
Width : 768 pixels
Height : 432 pixels
Display aspect ratio : 16:9
Frame rate : 23.976 fps
Resolution : 8 bits
Colorimetry : 4:2:0
Scan type : Progressive
Bits/(Pixel*Frame) : 0.167
Stream size : 1.03 GiB (91%)
Writing library : XviD 1.2.1 (UTC 2008-12-04)

Audio
ID : 1
Format : MPEG Audio
Format version : Version 1
Format profile : Layer 3
Format_Settings_Mode : Joint stereo
Format_Settings_ModeExtension : MS Stereo
Codec ID : 55
Codec ID/Hint : MP3
Duration : 1h 50mn
Bit rate mode : Constant
Bit rate : 128 Kbps
Channel(s) : 2 channels
Sampling rate : 48.0 KHz
Stream size : 101 MiB (9%)
Alignment : Aligned on interleaves
Interleave, duration : 250 ms (5.99 video frames)
Interleave, preload duration : 432 ms

Scream 4 2011 BRRip XViD -TVAL

DOWNLOAD

http://www.filesonic.com/file/1614994584/Scream 4 2011 BRRip XViD -TVAL.rar

http://www.fileserve.com/file/fs3SBpd/Scream 4 2011 BRRip XViD -TVAL.rar

http://www.uploadstation.com/file/gNQWzzd/Scream 4 2011 BRRip XViD -TVAL.rar

http://bitshare.com/files/or9bydvt/Scream-204-202011-20BRRip-20XViD-20-TVAL.rar

http://www.wupload.com/file/82303540/Scream 4 2011 BRRip XViD -TVAL.rar

Download File

Here you can download files online. Unlimited access to all sources file with one click direct download link!
Share
  • Featured link
  • [7-08-2011]

Comment