Paul Gilbert Intense Rock Complete (DVDR-NNH)

Tutorial & e-learning. July 24, 2011 by zhenia.
Paul Gilbert Intense Rock Complete (DVDR-NNH)

Paul Gilbert Intense Rock Complete (DVDR-NNH)
Language: English| 26mn 47s | VOB | 720x480 | 23.976 fps | 192 kb/s | 48.0 KHz | 4.3 GB
Genre: Training

Intense Rock takes you step by step through the techniques that will enable you to play terrifying licks. In this exciting presentation, Paul Gilbert teaches you his personal exercises and sequences for incredibly fast and clean alternate picking, 3-note-per-string scales, sweep picking and string skipping.

General
Format : MPEG-PS
File size : 1 024 MiB
Duration : 26mn 47s
Overall bit rate : 5 343 Kbps

Video
ID : 224 (0xE0)
Format : MPEG Video
Format version : Version 2
Format profile : Main@Main
Format settings, BVOP : Yes
Format settings, Matrix : Default
Format settings, GOP : M=3, N=15
Duration : 26mn 47s
Bit rate mode : Variable
Bit rate : 5 044 Kbps
Nominal bit rate : 7 500 Kbps
Width : 720 pixels
Height : 480 pixels
Display aspect ratio : 4:3
Frame rate : 29.970 fps
Standard : NTSC
Color space : YUV
Chroma subsampling : 4:2:0
Bit depth : 8 bits
Scan type : Interlaced
Scan order : Bottom Field First
Bits/(Pixel*Frame) : 0.487
Stream size : 967 MiB (94%)

Audio
ID : 128 (0x80)
Format : AC-3
Format/Info : Audio Coding 3
Mode extension : CM (complete main)
Duration : 26mn 47s
Bit rate mode : Constant
Bit rate : 192 Kbps
Channel(s) : 2 channels
Channel positions : Front: L R
Sampling rate : 48.0 KHz
Bit depth : 16 bits
Video delay : -416ms
Stream size : 36.8 MiB (4%)

Paul Gilbert Intense Rock Complete (DVDR-NNH)


Download From Wupload

http://www.wupload.com/file/63559389/Paul.Gilbert.Intense.Rock.COMPLETE.DVDR-NNH.part01.rar
http://www.wupload.com/file/63559397/Paul.Gilbert.Intense.Rock.COMPLETE.DVDR-NNH.part02.rar
http://www.wupload.com/file/63559416/Paul.Gilbert.Intense.Rock.COMPLETE.DVDR-NNH.part03.rar
http://www.wupload.com/file/63559381/Paul.Gilbert.Intense.Rock.COMPLETE.DVDR-NNH.part04.rar
http://www.wupload.com/file/63563512/Paul.Gilbert.Intense.Rock.COMPLETE.DVDR-NNH.part05.rar
http://www.wupload.com/file/63559419/Paul.Gilbert.Intense.Rock.COMPLETE.DVDR-NNH.part06.rar
http://www.wupload.com/file/63559390/Paul.Gilbert.Intense.Rock.COMPLETE.DVDR-NNH.part07.rar
http://www.wupload.com/file/63560843/Paul.Gilbert.Intense.Rock.COMPLETE.DVDR-NNH.part08.rar
http://www.wupload.com/file/63559400/Paul.Gilbert.Intense.Rock.COMPLETE.DVDR-NNH.part09.rar

Download From Filesonic

http://www.filesonic.com/file/1494751534/Paul.Gilbert.Intense.Rock.COMPLETE.DVDR-NNH.part01.rar
http://www.filesonic.com/file/1494767754/Paul.Gilbert.Intense.Rock.COMPLETE.DVDR-NNH.part02.rar
http://www.filesonic.com/file/1494733904/Paul.Gilbert.Intense.Rock.COMPLETE.DVDR-NNH.part03.rar
http://www.filesonic.com/file/1494751684/Paul.Gilbert.Intense.Rock.COMPLETE.DVDR-NNH.part04.rar
http://www.filesonic.com/file/1494733934/Paul.Gilbert.Intense.Rock.COMPLETE.DVDR-NNH.part05.rar
http://www.filesonic.com/file/1494734064/Paul.Gilbert.Intense.Rock.COMPLETE.DVDR-NNH.part06.rar
http://www.filesonic.com/file/1494730154/Paul.Gilbert.Intense.Rock.COMPLETE.DVDR-NNH.part07.rar
http://www.filesonic.com/file/1494734684/Paul.Gilbert.Intense.Rock.COMPLETE.DVDR-NNH.part08.rar
http://www.filesonic.com/file/1494725224/Paul.Gilbert.Intense.Rock.COMPLETE.DVDR-NNH.part09.rar
http://www.filesonic.com/file/1494748444/Paul.Gilbert.Intense.Rock.COMPLETE.DVDR-NNH.part10.rar


All Links Are Interchangeable.Thank you for attention!

Download File

Here you can download files online. Unlimited access to all sources file with one click direct download link!
Share
  • Featured link
  • [24-07-2011]

Comment