Our Family Wedding 2010 Cam Lu

Movies. March 24, 2010 by CONFiG.
Our Family Wedding 2010 Cam Lu


Our Family Wedding 2010 Cam Lu Fix | 715.71 MB


iMBD Rating: 3.7/10 291 votes
Genre: Comedy

TiTLE......[ Our Family Wedding
YEAR.......[ 2010
GENRE......[ Comedy
RUNTiME....[ 1:38:49
iMDB RATE..[ User Rating: 3.7/10 291 votes
iMDB URL...[ http://www.imdb.com/title/tt1305583/


Format : AVI
Format/Info : Audio Video Interleave
File size : 716 MiB
Duration : 1h 38mn
Overall bit rate : 1 012 Kbps
Writing library : VirtualDub build 32706/release

Video
ID : 0
Format : MPEG-4 Visual
Format settings, BVOP : Yes
Format settings, QPel : No
Format settings, GMC : No warppoints
Format settings, Matrix : Default (H.263)
Muxing mode : Packed bitstream
Codec ID : DX50
Codec ID/Hint : DivX 5
Duration : 1h 38mn
Bit rate : 873 Kbps
Width : 608 pixels
Height : 272 pixels
Display aspect ratio : 2.25:1
Frame rate : 29.970 fps
Resolution : 8 bits
Colorimetry : 4:2:0
Scan type : Progressive
Bits/(Pixel*Frame) : 0.176
Stream size : 617 MiB (86%)
Writing library : DivX 6.8.5 (UTC 2009-08-20)

Audio
ID : 1
Format : MPEG Audio
Format version : Version 1
Format profile : Layer 3
Codec ID : 55
Codec ID/Hint : MP3
Duration : 1h 38mn
Bit rate mode : Constant
Bit rate : 128 Kbps
Channel(s) : 2 channels
Sampling rate : 44.1 KHz
Video delay : 9ms
Stream size : 90.5 MiB (13%)
Alignment : Split accross interleaves
Interleave, duration : 33 ms (1.00 video frame)
Interleave, preload duration : 500 ms

Notes
Well thanks to Krucialent for the vobs but they were a mess had to crop and cut and rotate to get it as best as we can so take it or lev it but it is a ok first cam

Our Family Wedding 2010 Cam Lu
Our Family Wedding 2010 Cam Lu
Our Family Wedding 2010 Cam Lu

iMDB | Sample
Our.Family.Wedding.2010.Cam.Lu.Fix
Download

http://hotfile.com/dl/34369589/64a0582/downloadbox.org-Our.Family.Wedding.2010.Cam.Lu.Fix.part1.rar.html
http://hotfile.com/dl/34369666/7f62ca5/downloadbox.org-Our.Family.Wedding.2010.Cam.Lu.Fix.part2.rar.html
http://hotfile.com/dl/34370032/0a6c55d/downloadbox.org-Our.Family.Wedding.2010.Cam.Lu.Fix.part3.rar.html
http://hotfile.com/dl/34369737/85a44d9/downloadbox.org-Our.Family.Wedding.2010.Cam.Lu.Fix.part4.rar.html

http://depositfiles.com/files/zdfkdk36m/downloadbox.org-Our.Family.Wedding.2010.Cam.Lu.Fix.part1.rar
http://depositfiles.com/files/iifj3jexv/downloadbox.org-Our.Family.Wedding.2010.Cam.Lu.Fix.part2.rar
http://depositfiles.com/files/p8ngbf33a/downloadbox.org-Our.Family.Wedding.2010.Cam.Lu.Fix.part3.rar
http://depositfiles.com/files/g83gbj8a5/downloadbox.org-Our.Family.Wedding.2010.Cam.Lu.Fix.part4.rar

http://rapidshare.com/files/367565170/downloadbox.org-Our.Family.Wedding.2010.Cam.Lu.Fix.part1.rar
http://rapidshare.com/files/367565182/downloadbox.org-Our.Family.Wedding.2010.Cam.Lu.Fix.part2.rar
http://rapidshare.com/files/367565444/downloadbox.org-Our.Family.Wedding.2010.Cam.Lu.Fix.part3.rar
http://rapidshare.com/files/367565321/downloadbox.org-Our.Family.Wedding.2010.Cam.Lu.Fix.part4.rar

Download File

Here you can download files online. Unlimited access to all sources file with one click direct download link!
Share
 Cam
  • Featured link
  • [24-03-2010]

Comment