Medium S01 DL 720p HDTV.x264-TVS

TV Shows. April 9, 2011 by sykdL.

Medium S01 DL 720p HDTV.x264-TVS
Language: English - German
Size: 21.88 Complete | Single Links

IMDB


Format : Matroska
File size : 1.37 GiB
Duration : 43mn 13s
Overall bit rate : 4 525 Kbps
Encoded date : UTC 2011-03-28 08:29:05
Writing application : mkvmerge v4.4.0 ('Die Wiederkehr') built on Oct 31 2010 21:52:48
Writing library : libebml v1.0.0 + libmatroska v1.0.0

Video
ID : 1
Format : AVC
Format/Info : Advanced Video Codec
Format profile : High@L4.1
Format settings, CABAC : Yes
Format settings, ReFrames : 5 frames
Format settings, GOP : M=1, N=31
Muxing mode : Container profile=Unknown@4.1
Codec ID : V_MPEG4/ISO/AVC
Duration : 43mn 13s
Bit rate mode : Variable
Bit rate : 3 757 Kbps
Maximum bit rate : 40.0 Mbps
Width : 1 280 pixels
Height : 720 pixels
Display aspect ratio : 16:9
Frame rate : 25.000 fps
Color space : YUV
Chroma subsampling : 4:2:0
Bit depth : 8 bits
Scan type : Progressive
Bits/(Pixel*Frame) : 0.163
Stream size : 1.11 GiB (81%)
Writing library : x264 core 112 r1867 22bfd31
Encoding settings : cabac=1 / ref=6 / deblock=1:0:0 / analyse=0x3:0x113 / me=umh / subme=7 / psy=1 / psy_rd=1.00:0.00 / mixed_ref=1 / me_range=16 / chroma_me=1 / trellis=2 / 8x8dct=1 / cqm=0 / deadzone=21,11 / fast_pskip=0 / chroma_qp_offset=-2 / threads=36 / sliced_threads=0 / slices=4 / nr=0 / decimate=0 / interlaced=0 / constrained_intra=0 / bframes=3 / b_pyramid=1 / b_adapt=2 / b_bias=0 / direct=3 / weightb=1 / open_gop=2 / weightp=2 / keyint=24 / keyint_min=1 / scenecut=40 / intra_refresh=0 / rc_lookahead=24 / rc=2pass / mbtree=1 / bitrate=3757 / ratetol=1.0 / qcomp=0.60 / qpmin=0 / qpmax=51 / qpstep=4 / cplxblur=20.0 / qblur=0.5 / vbv_maxrate=40000 / vbv_bufsize=30000 / nal_hrd=vbr / ip_ratio=1.40 / aq=2:1.00

Audio #1
ID : 2
Format : AC-3
Format/Info : Audio Coding 3
Mode extension : CM (complete main)
Muxing mode : Header stripping
Codec ID : A_AC3
Duration : 43mn 13s
Bit rate mode : Constant
Bit rate : 384 Kbps
Channel(s) : 2 channels
Channel positions : Front: L R
Sampling rate : 48.0 KHz
Bit depth : 16 bits
Stream size : 119 MiB (8%)
Title : English
Language : English

Audio #2
ID : 3
Format : AC-3
Format/Info : Audio Coding 3
Mode extension : CM (complete main)
Muxing mode : Header stripping
Codec ID : A_AC3
Duration : 43mn 13s
Bit rate mode : Constant
Bit rate : 384 Kbps
Channel(s) : 6 channels
Channel positions : Front: L C R, Side: L R, LFE
Sampling rate : 48.0 KHz
Bit depth : 16 bits
Stream size : 119 MiB (8%)
Title : German
Language : German


Filesonic Download
E01
http://www.filesonic.com/file/382401801/tvs-medium-dd51-dl-7p-hdtv-x264-101.mkv
E02
http://www.filesonic.com/file/382420281/tvs-medium-dd51-dl-7p-hdtv-x264-102.mkv
E03
http://www.filesonic.com/file/382393731/tvs-medium-dd51-dl-7p-hdtv-x264-103.mkv
E04
http://www.filesonic.com/file/382429571/tvs-medium-dd51-dl-7p-hdtv-x264-104.mkv
E05
http://www.filesonic.com/file/382409411/tvs-medium-dd51-dl-7p-hdtv-x264-105.mkv
E06
http://www.filesonic.com/file/382411831/tvs-medium-dd51-dl-7p-hdtv-x264-106.mkv
E07
http://www.filesonic.com/file/382401521/tvs-medium-dd51-dl-7p-hdtv-x264-107.mkv
E08
http://www.filesonic.com/file/382411011/tvs-medium-dd51-dl-7p-hdtv-x264-108.mkv
E09
http://www.filesonic.com/file/382393831/tvs-medium-dd51-dl-7p-hdtv-x264-109.mkv
E10
http://www.filesonic.com/file/382510171/tvs-medium-dd51-dl-7p-hdtv-x264-110.mkv
E11
http://www.filesonic.com/file/382556621/tvs-medium-dd51-dl-7p-hdtv-x264-111.mkv
E12
http://www.filesonic.com/file/382518381/tvs-medium-dd51-dl-7p-hdtv-x264-112.mkv
E13
http://www.filesonic.com/file/382514681/tvs-medium-dd51-dl-7p-hdtv-x264-113.mkv
E14
http://www.filesonic.com/file/382527091/tvs-medium-dd51-dl-7p-hdtv-x264-114.mkv
E15
http://www.filesonic.com/file/382514691/tvs-medium-dd51-dl-7p-hdtv-x264-115.mkv
E16
http://www.filesonic.com/file/382426121/tvs-medium-dd51-dl-7p-hdtv-x264-116.mkv
Watch Tv shows online. Download videos Medium S01 DL 720p HDTV.x264-TVS - unlimited stream access anywhere.

Download File

Share
  • Featured link
  • [9-04-2011]

Comment