Letters to Juliet 2010 CAM XviD RePack-SLUGGER

Movies. May 30, 2010 by CONFiG.
Letters to Juliet 2010 CAM XviD RePack-SLUGGER

Letters to Juliet 2010 CAM XviD RePack-SLUGGER 509.79 MB


Letters.to.Juliet.2010.CAM.XviD.RePack-SLUGGER

Screens -
http://i46.downloadbox.org/10nx3wo.jpg

http://www.imdb.com/title/tt0892318

Plot:
An American girl on vacation in Italy finds an unanswered "letter to Juliet" -- one of thousands of missives left at the fictional lover's Verona courtyard, which are typically answered by a the "secretaries of Juliet" -- and she goes on a quest to find the lovers referenced in the letter.

Letters to Juliet 2010 CAM XviD RePack-SLUGGER
General
Format : AVI
Format/Info : Audio Video Interleave
File size : 510 MiB
Duration : 1h 38mn
Overall bit rate : 726 Kbps
Writing application : MEncoder Sherpya-SVN-r30075-4.2.5
Writing library : MPlayer

Video
ID : 0
Format : MPEG-4 Visual
Format profile : Simple@L3
Format settings, BVOP : No
Format settings, QPel : No
Format settings, GMC : No warppoints
Format settings, Matrix : Default (H.263)
Codec ID : XVID
Codec ID/Hint : XviD
Duration : 1h 38mn
Bit rate : 593 Kbps
Width : 320 pixels
Height : 240 pixels
Display aspect ratio : 4:3
Frame rate : 25.000 fps
Resolution : 24 bits
Colorimetry : 4:2:0
Scan type : Progressive
Bits/(Pixel*Frame) : 0.309
Stream size : 416 MiB (82%)
Writing library : XviD 1.2.1 (UTC 2008-12-04)

Audio
ID : 1
Format : MPEG Audio
Format version : Version 1
Format profile : Layer 3
Codec ID : 55
Codec ID/Hint : MP3
Duration : 1h 38mn
Bit rate mode : Variable
Bit rate : 121 Kbps
Channel(s) : 2 channels
Sampling rate : 44.1 KHz
Resolution : 16 bits
Stream size : 84.8 MiB (17%)
Alignment : Aligned on interleaves
Interleave, duration : 26 ms (0.65 video frame)
Interleave, preload duration : 490 ms

Notes:
Thanks to TA for there help getting this out there.

Enjoy

Letters.to.Juliet.2010.CAM.XviD.RePack-SLUGGER iMDB - NFO - Sample

Download

Sample

http://hotfile.com/dl/45608092/12138bd/downloadbox.Let.to.Ju.2010.CAM.XviD.RePack-SLUGGER.part1.rar.html
http://hotfile.com/dl/45608064/fe31c7e/downloadbox.Let.to.Ju.2010.CAM.XviD.RePack-SLUGGER.part2.rar.html
http://hotfile.com/dl/45608101/b1fe8c7/downloadbox.Let.to.Ju.2010.CAM.XviD.RePack-SLUGGER.part3.rar.html

http://rapidshare.com/files/393319949/downloadbox.Let.to.Ju.2010.CAM.XviD.RePack-SLUGGER.part1.rar
http://rapidshare.com/files/393320074/downloadbox.Let.to.Ju.2010.CAM.XviD.RePack-SLUGGER.part2.rar
http://rapidshare.com/files/393318951/downloadbox.Let.to.Ju.2010.CAM.XviD.RePack-SLUGGER.part3.rar

http://ugotfile.com/file/1471199/downloadbox.Let.to.Ju.2010.CAM.XviD.RePack-SLUGGER.part1.rar
http://ugotfile.com/file/1471211/downloadbox.Let.to.Ju.2010.CAM.XviD.RePack-SLUGGER.part2.rar
http://ugotfile.com/file/1471173/downloadbox.Let.to.Ju.2010.CAM.XviD.RePack-SLUGGER.part3.rar

Download File

Here you can download files online. Unlimited access to all sources file with one click direct download link!
Share
  • Featured link
  • [30-05-2010]

Comment