Last Night 2010 BluRay 720p DTS x264-Kaliber

Movies. March 21, 2011 by meno.


Last Night 2010 BluRay 720p DTS x264-Kaliber | 4.99 GB


http://www.imdb.com/title/tt1294688/
Users: 6.8/10 (1,098 votes)

The story follows a married couple, apart for a night while the husband
takes a business trip with a colleague to whom he's attracted. While he's
resisting temptation, his wife encounters her past love.


Complete name : Last.Night.2010..720p.Bluray.x264.mkv
Format : Matroska
File size : 5.00 GiB
Duration : 1h 32mn
Overall bit rate : 7 731 Kbps
Encoded date : UTC 2011-03-21 18:20:06
Writing application : mkvmerge v2.8.0 ('The Tree') built on May 9 2009 18:02:06
Writing library : libebml v0.7.7 + libmatroska v0.8.1

Video
ID : 1
Format : AVC
Format/Info : Advanced Video Codec
Format profile : High@L3.1
Format settings, CABAC : Yes
Format settings, ReFrames : 4 frames
Muxing mode : Container profile=Unknown@3.1
Codec ID : V_MPEG4/ISO/AVC
Duration : 1h 32mn
Bit rate : 6 068 Kbps
Nominal bit rate : 6 221 Kbps
Width : 1 280 pixels
Height : 544 pixels
Display aspect ratio : 2.35:1
Frame rate : 23.976 fps
Resolution : 8 bits
Colorimetry : 4:2:0
Scan type : Progressive
Bits/(Pixel*Frame) : 0.363
Stream size : 3.92 GiB (78%)
Title : Last Night- Kaliber
Writing library : x264 core 105 r1724 b02df7b
Encoding settings : cabac=1 / ref=4 / deblock=1:-3:-3 / analyse=0x3:0x113 / me=umh / subme=7 / psy=1 / psy_rd=1.00:0.00 / mixed_ref=1 / me_range=16 / chroma_me=1 / trellis=1 / 8x8dct=1 / cqm=0 / deadzone=21,11 / fast_pskip=1 / chroma_qp_offset=-2 / threads=12 / sliced_threads=0 / nr=0 / decimate=1 / interlaced=0 / constrained_intra=0 / bframes=3 / b_pyramid=2 / b_adapt=2 / b_bias=0 / direct=1 / weightb=1 / open_gop=0 / weightp=2 / keyint=240 / keyint_min=23 / scenecut=40 / intra_refresh=0 / rc_lookahead=50 / rc=2pass / mbtree=1 / bitrate=6221 / ratetol=1.0 / qcomp=0.60 / qpmin=10 / qpmax=51 / qpstep=4 / cplxblur=20.0 / qblur=0.5 / ip_ratio=1.40 / aq=1:1.00
Language : English
Color primaries : BT.709-5, BT.1361, IEC 61966-2-4, SMPTE RP177
Transfer characteristics : BT.709-5, BT.1361
Matrix coefficients : BT.709-5, BT.1361, IEC 61966-2-4 709, SMPTE RP177

Audio
ID : 2
Format : DTS
Format/Info : Digital Theater Systems
Codec ID : A_DTS
Duration : 1h 32mn
Bit rate mode : Constant
Bit rate : 1 510 Kbps
Channel(s) : 6 channels
Channel positions : Front: L C R, Side: L R, LFE
Sampling rate : 48.0 KHz
Resolution : 16 bits
Video delay : 10ms
Stream size : 999 MiB (20%)
Title : English DTS
Language : English[/code]



http://www.fileserve.com/file/jhHvVAH
http://www.fileserve.com/file/7QpdXuX
http://www.fileserve.com/file/FRubJxS
http://www.fileserve.com/file/kQsPN4w
http://www.fileserve.com/file/RdY4gUD
http://www.fileserve.com/file/yqMa3Zs

http://www.filesonic.com/file/315075771/meno-lastN.part1.rar
http://www.filesonic.com/file/315075731/meno-lastN.part2.rar
http://www.filesonic.com/file/315071041/meno-lastN.part3.rar
http://www.filesonic.com/file/315075781/meno-lastN.part4.rar
http://www.filesonic.com/file/315104941/meno-lastN.part5.rar
http://www.filesonic.com/file/315064141/meno-lastN.part6.rar

http://netload.in/dateidYYM7ZCjNR/meno-lastN.part1.rar.htm
http://netload.in/dateiPV8R0yc932/meno-lastN.part2.rar.htm
http://netload.in/dateiLc8jC46qz4/meno-lastN.part3.rar.htm
http://netload.in/dateioYlIVriRro/meno-lastN.part4.rar.htm
http://netload.in/dateirwX18kyvkk/meno-lastN.part5.rar.htm
http://netload.in/dateiKtVdpM7R37/meno-lastN.part6.rar.htm

https://www.rapidshare.com/files/453745538/meno-lastN.part1.rar
https://www.rapidshare.com/files/453745544/meno-lastN.part2.rar
https://www.rapidshare.com/files/453745543/meno-lastN.part3.rar
https://www.rapidshare.com/files/453745542/meno-lastN.part4.rar
https://www.rapidshare.com/files/453745541/meno-lastN.part5.rar
https://www.rapidshare.com/files/453745540/meno-lastN.part6.rar

Download File

Here you can download files online. Unlimited access to all sources file with one click direct download link!
Share
  • Featured link
  • [21-03-2011]
Thanks a lot.

Comment