Kickboxer 1989 iNTERNAL DVDRip XviD-SPRiNTER

Movies. April 19, 2011 by sykdL.

Kickboxer 1989 iNTERNAL DVDRip XviD-SPRiNTER | 700 MB
IMDB



SPRiNTER proudly presents...

Kickboxer.1989.iNTERNAL.DVDRip.XviD-SPRiNTER
http://www.imdb.com/title/tt0097659/
Subtitles: English, Espanol

Date: 2010.01


Directors: Mark DiSalle, David Worth
Genre: Action | Sport
Tagline: An Ancient Sport Becomes A Deadly Game.

Cast

Jean-Claude Van Damme ... Kurt Sloane (as Jean Claude Van Damme)
Dennis Alexio ... Eric Sloane
Dennis Chan ... Xian Chow
Michel Qissi ... Tong Po (as Tong Po)
Haskell V. Anderson III ... Winston Taylor (as Haskell Anderson)
Rochelle Ashana ... Mylee
Ka Ting Lee ... Freddy Li (as Steve Lee)
Richard Foo ... Tao Liu
Ricky Liu ... Big Thai Man
Ho Ying Sin ...Huge Village Man #1 (as Sin Ho Ying)
Tony Chan ... Huge Village Man #2
Brad Kerner ... U.S. Announcer
Dean Harrington ... U.S. Announcer
Mark DiSalle ...U.S. Reporter
Richard Santoro ... U.S. Reporter


Release notes:
Enjoy!


Format : AVI
Format/Info : Audio Video Interleave
File size : 702 MiB
Duration : 1h 37mn
Overall bit rate : 1 007 Kbps
Writing application : VirtualDubMod 1.5.10.2 (build 2540/release)
Writing library : VirtualDubMod build 2540/release

Video
Format : MPEG-4 Visual
Format profile : Streaming Video@L1
Format settings, BVOP : Yes
Format settings, QPel : No
Format settings, GMC : No warppoints
Format settings, Matrix : Default (MPEG)
Muxing mode : Packed bitstream
Codec ID : XVID
Codec ID/Hint : XviD
Duration : 1h 37mn
Bit rate : 870 Kbps
Width : 512 pixels
Height : 384 pixels
Display aspect ratio : 4/3
Frame rate : 23.976 fps
Resolution : 24 bits
Colorimetry : 4:2:0
Scan type : Progressive
Bits/(Pixel*Frame) : 0.185
Stream size : 607 MiB (86%)
Writing library : XviD 1.2.1 (UTC 2008-12-04)

Audio
Format : MPEG Audio
Format version : Version 1
Format profile : Layer 3
Codec ID : 55
Codec ID/Hint : MP3
Duration : 1h 37mn
Bit rate mode : Variable
Bit rate : 124 Kbps
Nominal bit rate : 128 Kbps
Channel(s) : 2 channels
Sampling rate : 48.0 KHz
Resolution : 16 bits
Stream size : 86.4 MiB (12%)
Alignment : Aligned on interleaves
Interleave, duration : 24 ms (0.58 video frame)
Interleave, preload duration : 148 ms
Writing library : LAME3.90.
Encoding settings : -m j -V 4 -q 2 -lowpass 17.6 --abr 128


Download File

Here you can download files online. Unlimited access to all sources file with one click direct download link!
Share
  • Featured link
  • [19-04-2011]

Comment