Just Wright CAM-NoGrp

Movies. May 23, 2010 by CONFiG.
Just Wright CAM-NoGrp

Just Wright CAM-NoGrp 697.79 MB


This is what i called CAM huahahaha, Don't download

http://www.imdb.com/title/tt1407061/

CAM
DVDR (.vobs)

General
Format : MPEG-PS
File size : 698 MiB
Duration : 1h 35mn
Overall bit rate : 1 019 Kbps

Video
ID : 224 (0xE0)
Format : MPEG Video
Format version : Version 2
Format settings, BVOP : Yes
Format settings, Matrix : Default
Duration : 1h 35mn
Bit rate mode : Variable
Bit rate : 723 Kbps
Nominal bit rate : 1 284 Kbps
Width : 352 pixels
Height : 240 pixels
Display aspect ratio : 3:2
Frame rate : 29.970 fps
Resolution : 8 bits
Scan type : Progressive
Bits/(Pixel*Frame) : 0.286
Stream size : 495 MiB (71%)

Audio
ID : 128 (0x80)
Format : AC-3
Format/Info : Audio Coding 3
Format_Settings_ModeExtension : CM (complete main)
Duration : 1h 35mn
Bit rate mode : Constant
Bit rate : 256 Kbps
Channel(s) : 2 channels
Channel positions : Front: L R
Sampling rate : 48.0 KHz
Stream size : 175 MiB (25%)



Download File

Here you can download files online. Unlimited access to all sources file with one click direct download link!
Share
  • Featured link
  • [23-05-2010]
Download now Just Wright CAM-NoGrp

Comment