IP Man 2008 NTSC Retail DVDR

Movies. September 3, 2010 by Bidadari.
IP Man 2008 NTSC Retail DVDR

A semi-biographical account of Yip Man, the first martial arts master to teach the Chinese martial art of Wing Chun.

IP Man 2008 NTSC Retail DVDR (4.3 GB) |imdb info


General
Complete name : F:\IP_MAN\VIDEO_TS\VTS_08_1.VOB
Format : MPEG-PS
File size : 1 024 MiB
Duration : 29mn 23s
Overall bit rate : 4 870 Kbps

Video
ID : 224 (0xE0)
Format : MPEG Video
Format version : Version 2
Format profile : Main@Main
Format settings, BVOP : Yes
Format settings, Matrix : Default
Duration : 29mn 23s
Bit rate mode : Variable
Bit rate : 3 621 Kbps
Nominal bit rate : 8 456 Kbps
Width : 720 pixels
Height : 480 pixels
Display aspect ratio : 16:9
Frame rate : 23.976 fps
Standard : NTSC
Color space : YUV
Chroma subsampling : 4:2:0
Bit depth : 8 bits
Scan type : Progressive
Scan order : 2:3 Pulldown
Bits/(Pixel*Frame) : 0.437
Stream size : 761 MiB (74%)

Audio #1
ID : 128 (0x80)
Format : AC-3
Format/Info : Audio Coding 3
Mode extension : CM (complete main)
Duration : 29mn 23s
Bit rate mode : Constant
Bit rate : 384 Kbps
Channel(s) : 6 channels
Channel positions : Front: L C R, Side: L R, LFE
Sampling rate : 48.0 KHz
Bit depth : 16 bits
Stream size : 80.7 MiB (8%)

Audio #2
ID : 129 (0x81)
Format : AC-3
Format/Info : Audio Coding 3
Mode extension : CM (complete main)
Duration : 29mn 23s
Bit rate mode : Constant
Bit rate : 384 Kbps
Channel(s) : 6 channels
Channel positions : Front: L C R, Side: L R, LFE
Sampling rate : 48.0 KHz
Bit depth : 16 bits
Stream size : 80.7 MiB (8%)

Audio #3
ID : 130 (0x82)
Format : AC-3
Format/Info : Audio Coding 3
Mode extension : CM (complete main)
Duration : 29mn 23s
Bit rate mode : Constant
Bit rate : 384 Kbps
Channel(s) : 6 channels
Channel positions : Front: L C R, Side: L R, LFE
Sampling rate : 48.0 KHz
Bit depth : 16 bits
Stream size : 80.7 MiB (8%)

DVD Release: 07/27/2010


http://hotfile.com/dl/66517415/3995be2/ip.man.retail.part01.rar.html
http://hotfile.com/dl/66517417/ae1e521/ip.man.retail.part02.rar.html
http://hotfile.com/dl/66517408/270ac78/ip.man.retail.part03.rar.html
http://hotfile.com/dl/66517416/8fadb28/ip.man.retail.part04.rar.html
http://hotfile.com/dl/66517412/0b1171d/ip.man.retail.part05.rar.html
http://hotfile.com/dl/66517414/ecc1d2b/ip.man.retail.part06.rar.html
http://hotfile.com/dl/66517411/9fecb84/ip.man.retail.part07.rar.html
http://hotfile.com/dl/66517419/f2a0e5c/ip.man.retail.part08.rar.html
http://hotfile.com/dl/66517418/8ee9aa6/ip.man.retail.part09.rar.html
http://hotfile.com/dl/66517407/6fd7199/ip.man.retail.part10.rar.html
http://hotfile.com/dl/66517413/44695df/ip.man.retail.part11.rar.html
http://hotfile.com/dl/66517409/77e4096/ip.man.retail.part12.rar.html

http://www.fileserve.com/file/gtjunrz/ip.man.retail.part01.rar
http://www.fileserve.com/file/9msesAj/ip.man.retail.part02.rar
http://www.fileserve.com/file/tFDEe8d/ip.man.retail.part03.rar
http://www.fileserve.com/file/wK8ZkbD/ip.man.retail.part04.rar
http://www.fileserve.com/file/dHg2GeM/ip.man.retail.part05.rar
http://www.fileserve.com/file/V7thaS2/ip.man.retail.part06.rar
http://www.fileserve.com/file/YukKNNQ/ip.man.retail.part07.rar
http://www.fileserve.com/file/YaVmdjR/ip.man.retail.part08.rar
http://www.fileserve.com/file/kD3JhQj/ip.man.retail.part09.rar
http://www.fileserve.com/file/nkuKbMx/ip.man.retail.part10.rar
http://www.fileserve.com/file/Quc3y6v/ip.man.retail.part11.rar
http://www.fileserve.com/file/M6S5TUY/ip.man.retail.part12.rar

Download File

Here you can download files online. Unlimited access to all sources file with one click direct download link!
Share
  • Featured link
  • [3-09-2010]

Comment