Haevnen 2010 Blu-ray 720p DTS x264-blueyes

Movies. March 7, 2011 by meno.


Haevnen 2010 Blu-ray 720p DTS x264-blueyes | 6.56 GB | IMDB

The lives of two Danish families cross each other, and an extraordinary but risky friendship comes into bud. But loneliness, frailty and sorrow lie in wait.



Format : Matroska
File size : 6.56 GiB
Duration : 1h 57mn
Overall bit rate : 7 974 Kbps
Encoded date : UTC 2011-03-03 06:37:21
Writing application : mkvmerge v4.4.0 ('Die Wiederkehr') built on Oct 31 2010 21:52:48
Writing library : libebml v1.0.0 + libmatroska v1.0.0
Subtitle : English

Video
ID : 1
Format : AVC
Format/Info : Advanced Video Codec
Format profile : High@L4.1
Format settings, CABAC : Yes
Format settings, ReFrames : 5 frames
Muxing mode : Header stripping
Codec ID : V_MPEG4/ISO/AVC
Duration : 1h 57mn
Bit rate : 6 468 Kbps
Width : 1 280 pixels
Height : 544 pixels
Display aspect ratio : 2.35:1
Frame rate : 24.000 fps
Color space : YUV
Chroma subsampling : 4:2:0
Bit depth : 8 bits
Scan type : Progressive
Bits/(Pixel*Frame) : 0.387
Stream size : 5.19 GiB (79%)
Title : Danish
Writing library : x264 core 114 r1913 5fd3dce
Encoding settings : cabac=1 / ref=5 / deblock=1:0:0 / analyse=0x3:0x133 / me=umh / subme=7 / psy=1 / psy_rd=1.00:0.00 / mixed_ref=1 / me_range=16 / chroma_me=1 / trellis=1 / 8x8dct=1 / cqm=0 / deadzone=21,11 / fast_pskip=0 / chroma_qp_offset=-2 / threads=12 / sliced_threads=0 / nr=0 / decimate=1 / interlaced=0 / constrained_intra=0 / bframes=3 / b_pyramid=2 / b_adapt=2 / b_bias=0 / direct=3 / weightb=1 / open_gop=0 / weightp=2 / keyint=250 / keyint_min=24 / scenecut=40 / intra_refresh=0 / rc_lookahead=50 / rc=2pass / mbtree=1 / bitrate=6468 / ratetol=1.0 / qcomp=0.60 / qpmin=0 / qpmax=69 / qpstep=4 / cplxblur=20.0 / qblur=0.5 / ip_ratio=1.40 / aq=1:1.00
Language : Danish

Audio
ID : 2
Format : DTS
Format/Info : Digital Theater Systems
Muxing mode : Header stripping
Codec ID : A_DTS
Duration : 1h 57mn
Bit rate mode : Constant
Bit rate : 1 510 Kbps
Channel(s) : 6 channels
Channel positions : Front: L C R, Side: L R, LFE
Sampling rate : 48.0 KHz
Bit depth : 24 bits
Compression mode : Lossy
Stream size : 1.24 GiB (19%)
Title : Danish DTS
Language : Danish

Text #1
ID : 3
Format : UTF-8
Codec ID : S_TEXT/UTF8
Codec ID/Info : UTF-8 Plain Text
Title : Danish
Language : Danish

Text #2
ID : 4
Format : UTF-8
Codec ID : S_TEXT/UTF8
Codec ID/Info : UTF-8 Plain Text
Title : Danish
Language : Danish

Text #3
ID : 5
Format : UTF-8
Codec ID : S_TEXT/UTF8
Codec ID/Info : UTF-8 Plain Text
Title : Norwegian
Language : Norwegian

Text #4
ID : 6
Format : UTF-8
Codec ID : S_TEXT/UTF8
Codec ID/Info : UTF-8 Plain Text
Title : Swedish
Language : Swedish



http://www.fileserve.com/file/2nTrqmJ
http://www.fileserve.com/file/Ns6yUZg
http://www.fileserve.com/file/pUBFFNn
http://www.fileserve.com/file/mgKRcHe
http://www.fileserve.com/file/b9aKX75
http://www.fileserve.com/file/DD74Zde
http://www.fileserve.com/file/yqYbfqA

http://www.filesonic.com/file/168877502/meno-haevnen.part1.rar
http://www.filesonic.com/file/168877702/meno-haevnen.part2.rar
http://www.filesonic.com/file/168874981/meno-haevnen.part3.rar
http://www.filesonic.com/file/168890962/meno-haevnen.part4.rar
http://www.filesonic.com/file/168887212/meno-haevnen.part5.rar
http://www.filesonic.com/file/168883441/meno-haevnen.part6.rar
http://www.filesonic.com/file/168890842/meno-haevnen.part7.rar

http://netload.in/dateiMXUt4iNe49/meno-haevnen.part1.rar.htm
http://netload.in/dateiWhqGQ6oTac/meno-haevnen.part2.rar.htm
http://netload.in/dateizOxE56n2vp/meno-haevnen.part3.rar.htm
http://netload.in/dateigZmVAITuZV/meno-haevnen.part4.rar.htm
http://netload.in/dateiTAAOHO9nA1/meno-haevnen.part5.rar.htm
http://netload.in/dateiEbMAWHamuJ/meno-haevnen.part6.rar.htm
http://netload.in/dateizqX9A92d4Y/meno-haevnen.part7.rar.htm

http://bitshare.com/files/tab8m3v2/meno-haevnen.part1.rar.html
http://bitshare.com/files/ngev4zqn/meno-haevnen.part2.rar.html
http://bitshare.com/files/74w87vcf/meno-haevnen.part3.rar.html
http://bitshare.com/files/bpelgyxc/meno-haevnen.part4.rar.html
http://bitshare.com/files/q9wuc9jo/meno-haevnen.part5.rar.html
http://bitshare.com/files/4kw0quq9/meno-haevnen.part6.rar.html
http://bitshare.com/files/hs9e2v48/meno-haevnen.part7.rar.html

http://www.duckload.com/download/3483068/meno-haevnen.part1.rar
http://www.duckload.com/download/3483066/meno-haevnen.part2.rar
http://www.duckload.com/download/3483060/meno-haevnen.part3.rar
http://www.duckload.com/download/3483061/meno-haevnen.part4.rar
http://www.duckload.com/download/3483083/meno-haevnen.part5.rar
http://www.duckload.com/download/3483148/meno-haevnen.part6.rar
http://www.duckload.com/download/3483136/meno-haevnen.part7.rar

Download File

Here you can download files online. Unlimited access to all sources file with one click direct download link!
Share
  • Featured link
  • [7-03-2011]

Comment