Deus Irae 2010 DVDRip XviD-SiC

Movies, DVDRip. August 8, 2011 by Jolge.
Deus Irae 2010 DVDRip XviD-SiC

Deus Irae 2010 DVDRip XviD-SiC | 176 MB


Description:
A fragile border separates our world from the realm of darkness, where nightmarish creatures await in the shadows. Only one thing is standing in their way: a secret order of priests, who devote their souls to protect this border. They are the 'Deus Irae'.

IMDB Link:
http://www.imdb.com/title/tt1743327/

Note: This is an awesome horror short. At 13 minutes, you've got nothing to lose. Spanish audio with hardcoded English subtitles.

MediaInfo:
General
Complete name : Deus.Irae.2010.DVDRip.XviD-SiC.avi
Format : AVI
Format/Info : Audio Video Interleave
File size : 176 MiB
Duration : 13mn 33s
Overall bit rate : 1 811 Kbps

Video
ID : 0
Format : MPEG-4 Visual
Format profile : Advanced Simple@L5
Format settings, BVOP : 1
Format settings, QPel : No
Format settings, GMC : No warppoints
Format settings, Matrix : Default (H.263)
Codec ID : XVID
Codec ID/Hint : XviD
Duration : 13mn 33s
Bit rate : 1 355 Kbps
Width : 640 pixels
Height : 352 pixels
Display aspect ratio : 16:9
Frame rate : 25.000 fps
Color space : YUV
Chroma subsampling : 4:2:0
Bit depth : 8 bits
Scan type : Progressive
Compression mode : Lossy
Bits/(Pixel*Frame) : 0.241
Stream size : 131 MiB (75%)
Writing library : XviD 1.2.1 (UTC 2008-12-04)

Audio
ID : 1
Format : AC-3
Format/Info : Audio Coding 3
Mode extension : CM (complete main)
Codec ID : 2000
Duration : 13mn 33s
Bit rate mode : Constant
Bit rate : 448 Kbps
Channel(s) : 2 channels
Channel positions : Front: L R
Sampling rate : 44.1 KHz
Bit depth : 16 bits
Compression mode : Lossy
Delay relative to video : 70ms
Stream size : 43.5 MiB (25%)
Alignment : Split accross interleaves
Interleave, duration : 70 ms (1.74 video frames)
Interleave, preload duration : 209 ms

Deus Irae 2010 DVDRip XviD-SiC
Deus Irae 2010 DVDRip XviD-SiC

DOWNLOAD

http://www.fileserve.com/file/g6S58rY/Deus.Irae.2010.DVDRip.rar

http://www.wupload.com/file/83868822/Deus.Irae.2010.DVDRip.rar

http://www.filesonic.com/file/1624319804/Deus.Irae.2010.DVDRip.rar

http://www.uploadstation.com/file/mBuvAE2/Deus.Irae.2010.DVDRip.rar

http://bitshare.com/files/z72wzl8v/Deus.Irae.2010.DVDRip.rar

Download File

Here you can download files online. Unlimited access to all sources file with one click direct download link!
Share
  • Featured link
  • [8-08-2011]

Comment