Cowboys And Aliens 2011 TS x264 Feel-Free

Movies. August 2, 2011 by Jolge.


Cowboys And Aliens 2011 TS x264 Feel-Free | 1.38 GB


Plot:
A spaceship arrives in Arizona, 1873, to take over the Earth, starting with the Wild West region. A posse of cowboys are all that stand in their way.

Genre:Action | Sci-Fi | Thriller
Language:English
IMDb:http://www.imdb.com/title/tt0409847/
Source:IMAGINE Thanks!

Format : MPEG-4
Format profile : Base Media
Codec ID : isom
File size : 1.38 GiB
Duration : 1h 53mn
Overall bit rate : 1 735 Kbps

Video
ID : 1
Format : AVC
Format/Info : Advanced Video Codec
Format profile : High@L4.1
Format settings, CABAC : Yes
Format settings, ReFrames : 3 frames
Codec ID : avc1
Codec ID/Info : Advanced Video Coding
Duration : 1h 53mn
Bit rate mode : Variable
Bit rate : 1 500 Kbps
Maximum bit rate : 11.7 Mbps
Width : 720 pixels
Height : 304 pixels
Display aspect ratio : 2.35:1
Frame rate mode : Constant
Frame rate : 29.970 fps
Color space : YUV
Chroma subsampling : 4:2:0
Bit depth : 8 bits
Scan type : Progressive
Bits/(Pixel*Frame) : 0.229
Stream size : 1.20 GiB (87%)
Writing library : x264

Audio
ID : 2
Format : AAC
Format/Info : Advanced Audio Codec
Format version : Version 4
Format profile : LC
Format settings, SBR : No
Codec ID : 40
Duration : 1h 53mn
Bit rate mode : Variable
Bit rate : 224 Kbps
Maximum bit rate : 335 Kbps
Channel(s) : 2 channels
Channel positions : Front: L R
Sampling rate : 44.1 KHz
Stream size : 182 MiB (13%)




DOWNLOAD

http://www.filesonic.com/file/1574727884/Cowboys.And.Aliens.2011.TS.x264.rar

http://www.fileserve.com/file/ymujeqm/Cowboys.And.Aliens.2011.TS.x264.rar

http://www.uploadstation.com/file/QhQetwC/Cowboys.And.Aliens.2011.TS.x264.rar

http://bitshare.com/files/j5t705cl/Cowboys.And.Aliens.2011.TS.x264.rar

Download File

Here you can download files online. Unlimited access to all sources file with one click direct download link!
Share
  • Featured link
  • [2-08-2011]

Comment