Clerks 2 2006 BRRip x264 BBnRG

Movies, BRRip. July 25, 2011 by Jolge.
Clerks 2 2006 BRRip x264 BBnRG

Clerks 2 2006 BRRip x264 BBnRG | 1.00 GB


You can take the clerks out of the Quick Stop, but you just can't take the Quick Stop out of the clerks as Dante (Brian O'Halloran) and Randall (Jeff Anderson) prove in this long-awaited sequel to Kevin Smith's breakthrough comedy. Years after we last saw them, Dante is still toiling behind the counter at a New Jersey convenience store and Randall is still annoying customers at the video shop next door -- or at least they are until a fire burns down the strip mall, forcing Dante and Randall to look for work.

Format : MPEG-4
Format profile : Base Media / Version 2
Codec ID : mp42
File size : 1.00 GiB
Duration : 1h 37mn
Overall bit rate : 1 468 Kbps

Video
ID : 1
Format : AVC
Format/Info : Advanced Video Codec
Format profile : Main@L3.0
Format settings, CABAC : Yes
Format settings, ReFrames : 4 frames
Codec ID : avc1
Codec ID/Info : Advanced Video Coding
Duration : 1h 37mn
Bit rate mode : Variable
Bit rate : 1 303 Kbps
Width : 720 pixels
Height : 400 pixels
Display aspect ratio : 16:9
Frame rate mode : Variable
Frame rate : 23.976 fps
Minimum frame rate : 23.974 fps
Maximum frame rate : 23.981 fps
Color space : YUV
Chroma subsampling : 4:2:0
Bit depth : 8 bits
Scan type : Progressive
Bits/(Pixel*Frame) : 0.189
Stream size : 909 MiB (89%)
Writing library : x264 core 112

Audio
ID : 2
Format : AAC
Format/Info : Advanced Audio Codec
Format profile : LC
Codec ID : 40
Duration : 1h 37mn
Bit rate mode : Variable
Bit rate : 160 Kbps
Maximum bit rate : 306 Kbps
Channel(s) : 2 channels
Channel positions : Front: L R
Sampling rate : 48.0 KHz
Compression mode : Lossy
Stream size : 112 MiB (11%)

DOWNLOAD

http://www.fileserve.com/file/mfYndJu/Clerks  2 2006 BRRip x264 BBnRG.rar

http://www.filesonic.com/file/1516964144/Clerks%202%202006%20BRRip%20x264%20BBnRG.rar

http://bitshare.com/files/gn4iyno0/Clerks-202-202006-20BRRip-20x264-20BBnRG.rar.html

http://www.uploadstation.com/file/4VpSden/Clerks_2_2006_BRRip_x264_BBnRG.rar

http://www.wupload.com/file/66384467/Clerks%202%202006%20BRRip%20x264%20BBnRG.rar

Download File

Here you can download files online. Unlimited access to all sources file with one click direct download link!
Share
  • Featured link
  • [25-07-2011]

Comment