Chuck Berry - The Great Twenty-Eight (1982)

MUSiC. May 10, 2011 by aomua.

Chuck Berry - The Great Twenty-Eight (1982)
Release: 1992 | Unknown Rip | FLAC(tracks) - no cue - no log | Artwork | 771 MB
Genre: Rock n Roll


1984 Chess/MCA Records CH2-92500
1987 reissue
originally issued as Chess CH-8201 in 1982
matrix/deadwax info (hand etched):
CH-8201-A (TR)Pa 12-83 G
CH 8201 B
CH-8201-C (TR)Pa 12-83 G
CH-8201-D (TR)Pa 12-83 G
sides A,C,D cut by Phil Austin at Trutone
pressed at MCA's Gloversville, NY plant

Tracks:
A1 - Maybellene 2:18
A2 - Thirty Days 2:24
A3 - You Can't Catch Me 2:42
A4 - Too Much Monkey Business 2:53
A5 - Browned-Eyed Handsome Man 2:17
A6 - Roll Over Beethoven 2:23
A7 - Havana Moon 3:05

B1 - School Days 2:40
B2 - Rock And Roll Music 2:30
B3 - Oh Baby Doll 2:33
B4 - Reelin' And Rockin' 3:14
B5 - Sweet Little Sixteen 2:55
B6 - Johnny B. Goode 2:38
B7 - Around And Around 2:35

C1 - Carol 2:46
C2 - Beautiful Delilah 2:08
C3 - Memphis 2:12
C4 - Sweet Little Rock And Roller 2:20
C5 - Little Queenie 2:38
C6 - Almost Grown 2:19
C7 - Back In The USA 2:25

D1 - Let It Rock 1:50
D2 - Bye Bye Johnny 2:03
D3 - I'm Talking About You 1:48
D4 - Come On 1:50
D5 - Nadine 2:30
D6 - No Particular Place To Go 2:44
D7 - I Want To Be Your Driver 2:15

Originally produced by Phil and Leonard Chess
recorded at Chess studios, Chicago, IL, except D7 recorded in London
reissue engineer - Eric Thorngren

All tracks are the original mono single mixes (although I don't believe "I Want To Be Your Driver" (from the album 'Chuck Berry In London') was released as a single)

transfer info:
Nitty Gritty Record Master
Music Hall MMF 9.1
sticky hand stylus cleaning
Goldring 1042 cartridge
Graham Slee Era Gold Reflex phono preamp
Mytek Stereo192 ADC (analog to digital converter)
TT Weights outer ring clamp & center weight, cork platter mat, Blue Jean LC-1 interconnects
software used: Soundforge 10.0, ClickRepair 3.4.1 (in manual mode), Flac frontend 1.7.1
note - the left channel only was selected for creation of 2 channel (dual mono) files

flac fingerprints:
A1 - Maybellene.flac:f8b97272755b3829fff70e7f09bfecc9
A2 - Thirty Days.flac:0b2d4164e6ac27538f2f50d218aa2faa
A3 - You Can't Catch Me.flac:168786f418786c96d3a373b786e10f82
A4 - Too Much Monkey Business.flac:d3e0faafa3b0296caa3e34db8cd4fd25
A5 - Browned-Eyed Handsome Man.flac:cf66188bc6e9a0620dc24e393073d6ee
A6 - Roll Over Beethoven.flac:738323ea7839a988d72872f8c4c757fd
A7 - Havana Moon.flac:a96e43dd670d52a7ba63ba1488701747
B1 - School Days.flac:e0403a2cfb4402d8a1aa9efb9a27b405
B2 - Rock And Roll Music.flac:21f6eebd3429cfadfa2d01aab3182d6f
B3 - Oh Baby Doll.flac:8ee10870456a91a4bd5444e13af54e5e
B4 - Reelin' And Rockin'.flac:80991489469bd5bb1c25f8941520dffe
B5 - Sweet Little Sixteen.flac:da0d1066999ad552d3850d064b9a0ddb
B6 - Johnny B. Goode.flac:6c0de0856cdfa7de56a0a8b3b3e7f656
B7 - Around And Around.flac:e2e9ed03551d28d29b301febae09769c
C1 - Carol.flac:3f7175a295395f64a738fc94217bf408
C2 - Beautiful Delilah.flac:ce3aa36b8d79e39fb62e46f04978f77b
C3 - Memphis.flac:d236a0b0a494710f7e0811b3a51f2eaf
C4 - Sweet Little Rock And Roller.flac:b55b721d1a1aa668adec728a8e3a697b
C5 - Little Queenie.flac:7b71e548f09cf3e1000ff971781e5d9b
C6 - Almost Grown.flac:100b67b84896f77b1f93407325745ca3
C7 - Back In The USA.flac:341017764c34e7931ba1c472cca880cf
D1 - Let It Rock.flac:891f93c586bf2600a5a6365d856a32a7
D2 - Bye Bye Johnny.flac:053fb21020ea2c9999f9743694e5ea2f
D3 - I'm Talking About You.flac:71cdf3aba4f98f502eec246834f1fd6f
D4 - Come On.flac:b2f1590ec9153037e372518628467964
D5 - Nadine.flac:8169d25d2770a1bd8b803c56a7d0dfb1
D6 - No Particular Place To Go.flac:61022ab83180e1bf0486c5f39ce34a1f
D7 - I Want To Be Your Driver.flac:964c806be70408b6e0725de716663c50
___________________________________________

Dynamic range analysis:
DR Peak RMS Duration Track
--------------------------------------------------------------------------------
DR12 -3.56 dB -17.06 dB 2:23 ?-A1 - Maybellene
DR12 -2.35 dB -15.91 dB 2:24 ?-A2 - Thirty Days
DR12 -1.40 dB -14.74 dB 2:44 ?-A3 - You Can't Catch Me
DR12 -0.46 dB -15.07 dB 2:54 ?-A4 - Too Much Monkey Business
DR11 -2.45 dB -15.50 dB 2:16 ?-A5 - Browned-Eyed Handsome Man
DR11 -2.69 dB -15.72 dB 2:24 ?-A6 - Roll Over Beethoven
DR15 -0.63 dB -18.11 dB 3:09 ?-A7 - Havana Moon
DR12 -1.37 dB -15.42 dB 2:43 ?-B1 - School Days
DR13 -0.34 dB -15.20 dB 2:32 ?-B2 - Rock And Roll Music
DR12 -1.64 dB -15.42 dB 2:38 ?-B3 - Oh Baby Doll
DR12 -1.63 dB -17.10 dB 3:15 ?-B4 - Reelin' And Rockin'
DR12 -1.46 dB -15.50 dB 3:01 ?-B5 - Sweet Little Sixteen
DR11 -1.35 dB -15.59 dB 2:40 ?-B6 - Johnny B. Goode
DR12 -0.99 dB -14.83 dB 2:41 ?-B7 - Around And Around
DR14 -0.33 dB -16.59 dB 2:48 ?-C1 - Carol
DR14 -1.35 dB -17.10 dB 2:09 ?-C2 - Beautiful Delilah
DR10 -3.67 dB -15.87 dB 2:13 ?-C3 - Memphis
DR12 -1.66 dB -16.91 dB 2:22 ?-C4 - Sweet Little Rock And Roller
DR13 -1.65 dB -17.14 dB 2:42 ?-C5 - Little Queenie
DR13 -1.92 dB -16.40 dB 2:20 ?-C6 - Almost Grown
DR13 -1.98 dB -17.25 dB 2:26 ?-C7 - Back In The USA
DR12 -1.77 dB -16.68 dB 1:48 ?-D1 - Let It Rock
DR11 -3.23 dB -15.98 dB 2:04 ?-D2 - Bye Bye Johnny
DR12 -2.43 dB -16.03 dB 1:47 ?-D3 - I'm Talking About You
DR12 -3.39 dB -17.24 dB 1:49 ?-D4 - Come On
DR15 -0.17 dB -16.57 dB 2:35 ?-D5 - Nadine
DR12 -2.54 dB -15.95 dB 2:42 ?-D6 - No Particular Place To Go
DR13 -1.69 dB -16.16 dB 2:14 ?-D7 - I Want To Be Your Driver
--------------------------------------------------------------------------------

Number of tracks: 28
Maximum peak difference (-0.17 dB - -3.67 dB): 3.50 dB

Official DR value (Song Mode): DR12
========================================================

The definitive Chuck Berry compilation. First released in 1982, with a different cover and back. The liner notes inside the gatefold indicate this was issued in 1987. Although the matrix/deadwax info reveal this was made from earlier metal parts, which have the original catalog number. I have another vinyl copy, a Sugar Hill issue made in Canada, but this one here sounds noticeably better. Check out the dynamics on Havana Moon. I've compared this to it's CD counterpart, and this is better. The CD is a littler harsher.


Do not Be a Passer-By on My Topics! but Interact & Leave a Comment!
Please, send email to: nguyenthnh98@gmail.com if all links are dead
.

Download File

Here you can download files online. Unlimited access to all sources file with one click direct download link!
Share
  • Featured link
  • [10-05-2011]

Comment