Brothers Justice REPACK DVDRIP XViD - IMAGiNE

Movies, DVDRip. June 24, 2011 by Anonymous.
Brothers Justice REPACK DVDRIP XViD - IMAGiNE

Brothers Justice REPACK DVDRIP XViD - IMAGiNE


Motivated by Box Office statistics, Dax Shepard has made a decision to leave comedy to pursue his dream of becoming an international Martial Arts action star.

DETAILS:

Video
ID : 0
Format : MPEG-4 Visual
Format profile : Advanced Simple@L5
Format settings, BVOP : Yes
Format settings, QPel : No
Format settings, GMC : No warppoints
Format settings, Matrix : Default (H.263)
Muxing mode : Packed bitstream
Codec ID : XVID
Codec ID/Hint : XviD
Duration : 1h 17mn
Bit rate : 2 083 Kbps
Width : 720 pixels
Height : 400 pixels
Display aspect ratio : 16:9
Frame rate : 25.000 fps
Color space : YUV
Chroma subsampling : 4:2:0
Bit depth : 8 bits
Scan type : Progressive
Compression mode : Lossy
Bits/(Pixel*Frame) : 0.289
Stream size : 1.12 GiB (82%)
Writing library : XviD 58

Audio
ID : 1
Format : AC-3
Format/Info : Audio Coding 3
Mode extension : CM (complete main)
Codec ID : 2000
Duration : 1h 17mn
Bit rate mode : Constant
Bit rate : 448 Kbps
Channel(s) : 6 channels
Channel positions : Front: L C R, Side: L R, LFE
Sampling rate : 48.0 KHz
Bit depth : 16 bits
Compression mode : Lossy
Stream size : 247 MiB (18%)
Alignment : Aligned on interleaves
Interleave, duration : 40 ms (1.00 video frame)
Interleave, preload duration : 512 ms

iMDB . Sample
http://www.wupload.com/file/32524797/Broth.ers_Justi.ce_REPACKDVDRI-IMAGiNE-downloadbox.org.avi
http://www.filesonic.com/file/1299846201/Broth.ers_Justi.ce_REPACKDVDRI-IMAGiNE-downloadbox.org.avi
http://www.fileserve.com/file/8AMutTa/Broth.ers%20Justi.ce%20REPACKDVDRI-IMAGiNE-downloadbox.org.avi
https://rapidshare.com/files/3976615310/Broth.ers_Justi.ce_REPACKDVDRI-IMAGiNE-downloadbox.org.avi

Download File

Here you can download files online. Unlimited access to all sources file with one click direct download link!
Share
  • Featured link
  • [24-06-2011]

Comment