Blue Valentine (2010) LIMITED 720p Bluray x264-CBGB

Movies. April 19, 2011 by meno.


Blue Valentine (2010) LIMITED 720p Bluray x264-CBGB | 4.37 GB


http://www.imdb.com/title/tt1120985

The film centers on a contemporary married couple, charting their evolution over a span of years by cross-cutting between time periods.


Format : Matroska
File size : 4.37 GiB
Duration : 1h 52mn
Overall bit rate : 5 582 Kbps
Encoded date : UTC 2009-04-14 07:51:57
Writing application : mkvmerge v4.4.0 ('Die Wiederkehr') built on Oct 31 2010 21:52:48
Writing library : libebml v1.0.0 + libmatroska v1.0.0

Video
ID : 1
Format : AVC
Format/Info : Advanced Video Codec
Format profile : High@L4.1
Format settings, CABAC : Yes
Format settings, ReFrames : 5 frames
Muxing mode : Header stripping
Codec ID : V_MPEG4/ISO/AVC
Duration : 1h 52mn
Bit rate : 4 073 Kbps
Width : 1 200 pixels
Height : 720 pixels
Display aspect ratio : 1.667
Frame rate : 23.976 fps
Color space : YUV
Chroma subsampling : 4:2:0
Bit depth : 8 bits
Scan type : Progressive
Bits/(Pixel*Frame) : 0.197
Stream size : 3.10 GiB (71%)
Writing library : x264 core 115 r1937 aa21558
Encoding settings : cabac=1 / ref=5 / deblock=1:0:0 / analyse=0x3:0x113 / me=umh / subme=7 / psy=1 / psy_rd=1.00:0.20 / mixed_ref=1 / me_range=16 / chroma_me=1 / trellis=1 / 8x8dct=1 / cqm=0 / deadzone=21,11 / fast_pskip=1 / chroma_qp_offset=-3 / threads=12 / sliced_threads=0 / nr=0 / decimate=1 / interlaced=0 / bluray_compat=0 / constrained_intra=0 / bframes=3 / b_pyramid=2 / b_adapt=1 / b_bias=0 / direct=3 / weightb=1 / open_gop=0 / weightp=2 / keyint=250 / keyint_min=23 / scenecut=40 / intra_refresh=0 / rc_lookahead=40 / rc=2pass / mbtree=1 / bitrate=4073 / ratetol=1.0 / qcomp=0.60 / qpmin=0 / qpmax=69 / qpstep=4 / cplxblur=20.0 / qblur=0.5 / ip_ratio=1.40 / aq=1:1.00
Language : English

Audio
ID : 2
Format : DTS
Format/Info : Digital Theater Systems
Muxing mode : Header stripping
Codec ID : A_DTS
Duration : 1h 52mn
Bit rate mode : Constant
Bit rate : 1 510 Kbps
Channel(s) : 6 channels
Channel positions : Front: L C R, Side: L R, LFE
Sampling rate : 48.0 KHz
Bit depth : 24 bits
Compression mode : Lossy
Stream size : 1.18 GiB (27%)

Menu
00:00:00.000 : en:00:00:00.000
00:06:58.168 : en:00:06:58.168
00:13:08.246 : en:00:13:08.246
00:19:07.146 : en:00:19:07.146
00:22:32.685 : en:00:22:32.685
00:32:27.028 : en:00:32:27.028
00:35:39.471 : en:00:35:39.471
00:43:00.328 : en:00:43:00.328
00:50:18.766 : en:00:50:18.766
00:53:51.478 : en:00:53:51.478
01:06:24.981 : en:01:06:24.981
01:15:46.834 : en:01:15:46.834
01:22:37.744 : en:01:22:37.744
01:31:22.310 : en:01:31:22.310
01:37:42.523 : en:01:37:42.523
01:46:57.161 : en:01:46:57.161

Download File

Here you can download files online. Unlimited access to all sources file with one click direct download link!
Share
  • Featured link
  • [19-04-2011]

Comment