Blood Out 2011 PAL DVDR - IMAGiNE

Movies. April 14, 2011 by meno.


Blood Out 2011 PAL DVDR - IMAGiNE | 4.48 GB


Ripper ...........:IMAGiNE
IMDB Rating.......:n/a
Video Codec.......:XVID
Release Date......:14/04/11
Audio Codec.......:AC-3
Theatre Date......:26/04/11
Audio Bitrate.....:448
Runtime...........:1h 25mn
Subtitles.........:NIL
Language..........:ENGLISH
Resolution........:720 x 576
IMDb URL.......... http://www.imdb.com/title/tt1477675/

When big city detectives refuse to further investigate his kid brother's gang related murder, small town Sheriff Michael Spencer drops the badge and goes undercover to find his brother's killer and avenge his death.

DETAILS:

Video

ID : 224 (0xE0)
Format : MPEG Video
Format version : Version 2
Format profile : Main@Main
Format settings, BVOP : Yes
Format settings, Matrix : Default
Duration : 1h 25mn
Bit rate mode : Variable
Bit rate : 6 623 Kbps
Nominal bit rate : 8 500 Kbps
Width : 720 pixels
Height : 576 pixels
Display aspect ratio : 16:9
Frame rate : 25.000 fps
Standard : PAL
Color space : YUV
Chroma subsampling : 4:2:0
Bit depth : 8 bits
Scan type : Interlaced
Scan order : Top Field First
Bits/(Pixel*Frame) : 0.639
Stream size : 849 MiB (83%)

Audio #1

ID : 128 (0x80)
Format : AC-3
Format/Info : Audio Coding 3
Mode extension : CM (complete main)
Duration : 1h 25mn
Bit rate mode : Constant
Bit rate : 448 Kbps
Channel(s) : 6 channels
Channel positions : Front: L C R, Side: L R, LFE
Sampling rate : 48.0 KHz
Bit depth : 16 bits
Stream size : 57.4 MiB (6%)

Audio #2

ID : 137 (0x89)
Format : DTS
Format/Info : Digital Theater Systems
Duration : 1h 25mn
Bit rate mode : Constant
Bit rate : 755 Kbps
Channel(s) : 6 channels
Channel positions : Front: L C R, Side: L R, LFE
Sampling rate : 48.0 KHz
Bit depth : 16 bits
Stream size : 96.7 MiB (9%)

Text

ID : 32 (0x20)
Format : RLE
Format/Info : Run-length encoding

Menu

SOURCES:

VIDEO: Thankd m8ty ;-)
AUDIO: Thankd m8ty ;-)

NOTES:

Here we go with a dvdr of this..........Blood Out;-)
This is the dvdr Source it has all extras,chapters,setup,and ect.
no work done full dvd ...;-)

Enjoy folks ;-)








http://netload.in/datei2KVSDQFiDB/meno-bloodout.part01.rar.htm
http://netload.in/dateiVLKeIeTvkx/meno-bloodout.part02.rar.htm
http://netload.in/dateiP524hBwPSi/meno-bloodout.part03.rar.htm
http://netload.in/dateiydPjKfcxbp/meno-bloodout.part04.rar.htm
http://netload.in/dateiXh1L67mjWQ/meno-bloodout.part05.rar.htm
http://netload.in/dateioSpoXLczvM/meno-bloodout.part06.rar.htm
http://netload.in/dateih0jNKU81n0/meno-bloodout.part07.rar.htm
http://netload.in/dateidpT3jAdKvW/meno-bloodout.part08.rar.htm
http://netload.in/datei2tqDRxDBkB/meno-bloodout.part09.rar.htm
http://netload.in/dateiWLgPP1NWhG/meno-bloodout.part10.rar.htm
http://netload.in/dateiWO8yWHsigY/meno-bloodout.part11.rar.htm
http://netload.in/dateiO8Q1CiF4vQ/meno-bloodout.part12.rar.htm
http://netload.in/dateim594aBUL8h/meno-bloodout.part13.rar.htm

http://www.fileserve.com/file/zwSrz34
http://www.fileserve.com/file/XSvrqQE
http://www.fileserve.com/file/AsUeGFc
http://www.fileserve.com/file/TVTeRmm
http://www.fileserve.com/file/p6zc8JQ
http://www.fileserve.com/file/6aafdJH
http://www.fileserve.com/file/sJTwtmJ
http://www.fileserve.com/file/AGVGNnJ
http://www.fileserve.com/file/4Wfv6hm
http://www.fileserve.com/file/ZR3eX4w
http://www.fileserve.com/file/Us2S3bK
http://www.fileserve.com/file/SHPSAHq
http://www.fileserve.com/file/vngzEPU

http://www.filesonic.com/file/669185444
http://www.filesonic.com/file/669153074
http://www.filesonic.com/file/669481114
http://www.filesonic.com/file/669184784
http://www.filesonic.com/file/669160851
http://www.filesonic.com/file/669159534
http://www.filesonic.com/file/669168234
http://www.filesonic.com/file/669162724
http://www.filesonic.com/file/669163844
http://www.filesonic.com/file/669184394
http://www.filesonic.com/file/669167484
http://www.filesonic.com/file/669564624
http://www.filesonic.com/file/669170354

Download File

Here you can download files online. Unlimited access to all sources file with one click direct download link!
Share
  • Featured link
  • [14-04-2011]
  • CONFiG
  • [14 April 2011 19:37]
Tuti Astuti


CONFiG, serving downloadbox since 2008 !

Comment