Blades of Glory 2007 720p BRRip XviD AC3-T0XiCiNK

Movies. April 15, 2011 by sykdL.

Blades of Glory 2007 720p BRRip XviD AC3-T0XiCiNK | 2.90 GB
IMDB

::::::::::::::Enjoy:Another:Release:From:T0XiCiNK::::::::::::::

File:: Blades.of.Glory.2007.720p.BRRip.XviD.AC3-T0XiCiNK

Video Source:: Blades.Of.Glory.2007.BluRay.1080p.x264.DTS.dxva-xander, thanks
Audio Source:: Blades.Of.Glory.2007.BluRay.1080p.x264.DTS.dxva-xander, thanks
Language::English
IMDB:: http://www.imdb.com/title/tt0445934/

In 2002, two rival Olympic ice skaters were stripped of their gold medals and

permanently banned from men's single competition. Presently, however, they've

found a loophole that will allow them to qualify as a pairs team.

Specs::

General
Format                           : AVI
Format/Info                      : Audio Video Interleave
Format profile                   : OpenDML
File size                        : 2.92 GiB
Duration                         : 1h 33mn
Overall bit rate                 : 4 489 Kbps
Writing application              : VirtualDubMod 1.5.10.3 | www.virtualdub-fr.org

|| (build 2550/release)
Writing library                  : VirtualDubMod build 2550/release

Video
ID                               : 0
Format                           : MPEG-4 Visual
Format profile                   : Advanced Simple@L5
Format settings, BVOP            : Yes
Format settings, QPel            : No
Format settings, GMC             : No warppoints
Format settings, Matrix          : Default (H.263)
Muxing mode                      : Packed bitstream
Codec ID                         : XVID
Codec ID/Hint                    : XviD
Duration                         : 1h 33mn
Bit rate                         : 3 838 Kbps
Width                            : 1 280 pixels
Height                           : 720 pixels
Display aspect ratio             : 16:9
Frame rate                       : 23.976 fps
Color space                      : YUV
Chroma subsampling               : 4:2:0
Bit depth                        : 8 bits
Scan type                        : Progressive
Bits/(Pixel*Frame)               : 0.174
Stream size                      : 2.50 GiB (86%)
Writing library                  : XviD 62

Audio
ID                               : 1
Format                           : AC-3
Format/Info                      : Audio Coding 3
Mode extension                   : CM (complete main)
Codec ID                         : 2000
Duration                         : 1h 33mn
Bit rate mode                    : Constant
Bit rate                         : 640 Kbps
Channel(s)                       : 6 channels
Channel positions                : Front: L C R, Side: L R, LFE
Sampling rate                    : 48.0 KHz
Bit depth                        : 16 bits
Stream size                      : 426 MiB (14%)
Alignment                        : Split accross interleaves
Interleave, duration             : 42 ms (1.00 video frame)
Interleave, preload duration     : 500 ms




NOTES:: Onetwo's first brrip, so dont hate.. give feedback


::Why Complain? Whats Free Is Free::

::We are always looking for friends with unreleased DVD's, Screeners, R5's,

Audio, Cams, Silvers,
...and any other good sources you may have to offer -
..contact us: t0xicreleases@hushmail.com

::::::::::::::::::::::::::::::::::::   Respect To  

:::::::::::::::::::::::::::::::::::::
::FLAWL3SS,Rx,HEHE,Hive-CM8,Tranz,Vik,Joey,bob,Unevano,SANTi & our friends on utn

and PA::
                      "and to all of you who support us, Thank-You"

Download File

Here you can download files online. Unlimited access to all sources file with one click direct download link!
Share
  • Featured link
  • [15-04-2011]

Comment