Beauty And The Beast 2010 DVDRip Xvid AC3-Freebee

Movies. April 14, 2011 by sykdL.

Beauty And The Beast 2010 DVDRip Xvid AC3-Freebee
IMDB
Size: 1,50 GB
Single Link!

After several villagers are murdered rumors spread about a vicious beast lurking in the woods. But after the beast saves her life belle vows to help him stop the real villain - a malevolent troll controlled by a power-hungry witch.






General
Format : AVI
Format/Info : Audio Video Interleave
File size : 1.40 GiB
Duration : 1h 29mn
Overall bit rate : 2 229 Kbps

Video
ID : 0
Format : MPEG-4 Visual
Format profile : Advanced Simple@L5
Format settings, BVOP : 2
Format settings, QPel : Yes
Format settings, GMC : No warppoints
Format settings, Matrix : Default (MPEG)
Codec ID : XVID
Codec ID/Hint : XviD
Duration : 1h 29mn
Bit rate : 1 838 Kbps
Width : 720 pixels
Height : 400 pixels
Display aspect ratio : 16:9
Frame rate : 23.976 fps
Color space : YUV
Chroma subsampling : 4:2:0
Bit depth : 8 bits
Scan type : Progressive
Compression mode : Lossy
Bits/(Pixel*Frame) : 0.266
Stream size : 1.15 GiB (82%)
Writing library : XviD 1.2.1 (UTC 2008-12-04)

Audio
ID : 1
Format : AC-3
Format/Info : Audio Coding 3
Mode extension : CM (complete main)
Codec ID : 2000
Duration : 1h 29mn
Bit rate mode : Constant
Bit rate : 384 Kbps
Channel(s) : 6 channels
Channel positions : Front: L C R, Side: L R, LFE
Sampling rate : 48.0 KHz
Bit depth : 16 bits
Compression mode : Lossy
Stream size : 247 MiB (17%)
Alignment : Aligned on interleaves
Interleave, duration : 64 ms (1.54 video frames)
Interleave, preload duration : 192 ms
Title : VTS_01_1 T81 3_2ch 384Kbps DELAY 0ms english

Actors: Estella Warren, Rhett Giles, Vanessa Gray
Directors: David Lister
Language: English
Subtitles: English
Rated: R (Restricted)
Studio: Entertainment One
DVD Release Date: April 5, 2011
Run Time: 90 minutes

Sample Included: Yes
Encoder: Freebee269


Download File

Here you can download files online. Unlimited access to all sources file with one click direct download link!
Share
  • Featured link
  • [14-04-2011]

Comment