Battle Atlantice 2013 1080p WEB-DL x264 AAC-SmY

P2P
Asia, Chinese. September 12, 2013 by Anonymous.


Battle Atlantice 2013 1080p WEB-DL x264 AAC-SmY

Size: 1.13 GB Medium: WEB-DL Codec: H.264 Standard: 1080p

决战大洋 [麻生希]

中文名:决战大洋
制片:柴涛
出品时间:2013年
类型:爱情,青春,动作
出品公司:机锋网,芭乐传媒
主演:麻生希、夏元吉、柯哲娴、马卓
制片地区:中国北京
上映时间:2013年9月
导演:韩琰
对白语言:普通话

影片介绍
此次麻生希主演的电影《决战大洋》,题材取自机锋同名手机游戏《决战大洋》。麻生希将担任《决战大洋》电影女主角,这是麻生希第一次拍摄手机游戏题材的电影,片酬高达七位数。制作方机锋专门为麻生希量身定制了剧本和角色,影片制作同样耗资数百万。剧中,麻生希将饰演一名由历史上著名的战舰大和号演变而来的奇女子,而她也将与男主角发生一系列富有传奇的故事。
麻生希被评为2012年 SOD女优第一,她与绝大部分女优不同的是,麻生希毕业于日本横滨地区的名门女子大学,还对于钢琴颇有造诣。清纯、靓丽并且颇具气质的麻生希,在亚洲拥有极高的人气,这也让她受到了国内粉丝的青睐。而此次主演电影《决战大洋》,消息一出便引发了诸多粉丝的关注。
《决战大洋》是机锋娱乐事业部制作的第二部电影,电影的发行同样与芭乐传媒合作进行。由于麻生希的加盟,相信电影上映之时将取得开门大红。
Quote
File size : 1.13 GiB
Duration : 40mn 27s
Overall bit rate : 4 004 Kbps
Video
Format : AVC
Format/Info : Advanced Video Codec
Format profile : Main@L4.0
Format settings, CABAC : Yes
Format settings, ReFrames : 2 frames
Codec ID : 7
Duration : 40mn 27s
Bit rate : 3 801 Kbps
Width : 1 920 pixels
Height : 1 080 pixels
Display aspect ratio : 16:9
Frame rate mode : Constant
Frame rate : 25.000 fps
Color space : YUV
Chroma subsampling : 4:2:0
Bit depth : 8 bits
Scan type : Progressive
Bits/(Pixel*Frame) : 0.073
Stream size : 1.10 GiB (97%)
Writing library : avc encoder v1.9
Audio
Format : AAC
Format/Info : Advanced Audio Codec
Format profile : LC
Codec ID : 10
Duration : 40mn 26s
Bit rate : 102 Kbps
Channel(s) : 2 channels
Channel positions : Front: L R
Sampling rate : 44.1 KHz
Compression mode : Lossy
Stream size : 31.2 MiB (3%)


Download File

Datafile - Extabit

Here you can download files online. Unlimited access to all sources file with one click direct download link!
Share
  • Featured link
  • [12-09-2013]

Comment