Avatar 2009 DVDSCR DVDR-P2PLOVERS

Movies. February 5, 2010 by CONFiG.
Avatar 2009 DVDSCR DVDR-P2PLOVERS

Avatar 2009 DVDSCR DVDR-P2PLOVERS | 4.17 GB


iMBD Rating: 8.6/10 174,853 votes
Genre: Action | Adventure | Sci-Fi

ENjoy :)

Video
ID : 224 (0xE0)
Format : MPEG Video
Format version : Version 2
Format profile : Main@Main
Format settings, BVOP : Yes
Format settings, Matrix : Default
Duration : 8mn 15s
Bit rate mode : Variable
Bit rate : 3 272 Kbps
Nominal bit rate : 9 608 Kbps
Width : 720 pixels
Height : 480 pixels
Display aspect ratio : 4:3
Frame rate : 29.970 fps
Standard : NTSC
Resolution : 8 bits
Colorimetry : 4:2:0
Scan type : Progressive
Bits/(Pixel*Frame) : 0.316
Stream size : 193 MiB (91%)

Audio
ID : 128 (0x80)
Format : AC-3
Format/Info : Audio Coding 3
Duration : 8mn 15s
Bit rate mode : Constant
Bit rate : 192 Kbps
Channel(s) : 2 channels
Channel positions : L R
Sampling rate : 48.0 KHz
Stream size : 11.3 MiB (5%)

Avatar 2009 DVDSCR DVDR-P2PLOVERS

Avatar 2009 DVDSCR DVDR-P2PLOVERS

Avatar 2009 DVDSCR DVDR-P2PLOVERS

iMDB

Download

http://netload.in/dateiTDz1iMERGb/downloadbox.org-Avatar.DVDSCR.iso.part01.rar.htm
http://netload.in/dateiSAjLlNSfBz/downloadbox.org-Avatar.DVDSCR.iso.part02.rar.htm
http://netload.in/dateiCBdNbNHxV6/downloadbox.org-Avatar.DVDSCR.iso.part03.rar.htm
http://netload.in/dateiUredsxIAdI/downloadbox.org-Avatar.DVDSCR.iso.part04.rar.htm
http://netload.in/dateipCS5IVQ0Ia/downloadbox.org-Avatar.DVDSCR.iso.part05.rar.htm
http://netload.in/dateiTCZlXirqBn/downloadbox.org-Avatar.DVDSCR.iso.part06.rar.htm
http://netload.in/datei7ruklJG3wZ/downloadbox.org-Avatar.DVDSCR.iso.part07.rar.htm
http://netload.in/datei7JHoHmMVfv/downloadbox.org-Avatar.DVDSCR.iso.part08.rar.htm
http://netload.in/dateizKj6sBp9qR/downloadbox.org-Avatar.DVDSCR.iso.part09.rar.htm
http://netload.in/dateidHfX5IlUX9/downloadbox.org-Avatar.DVDSCR.iso.part10.rar.htm
http://netload.in/dateieDUevocyFI/downloadbox.org-Avatar.DVDSCR.iso.part11.rar.htm
http://netload.in/datei1yAHuHvmFa/downloadbox.org-Avatar.DVDSCR.iso.part12.rar.htm
http://netload.in/dateig0ZJGlmtCd/downloadbox.org-Avatar.DVDSCR.iso.part13.rar.htm
http://netload.in/dateizm7zj93Cir/downloadbox.org-Avatar.DVDSCR.iso.part14.rar.htm
http://netload.in/dateiWW9lgQn4y7/downloadbox.org-Avatar.DVDSCR.iso.part15.rar.htm
http://netload.in/dateihDdzjI21Cj/downloadbox.org-Avatar.DVDSCR.iso.part16.rar.htm
http://netload.in/dateiXyystbi3Xt/downloadbox.org-Avatar.DVDSCR.iso.part17.rar.htm
http://netload.in/dateiVEoQM9kCrr/downloadbox.org-Avatar.DVDSCR.iso.part18.rar.htm
http://netload.in/datei5MatKMEU07/downloadbox.org-Avatar.DVDSCR.iso.part19.rar.htm
http://netload.in/datei8xo3eW7O7J/downloadbox.org-Avatar.DVDSCR.iso.part20.rar.htm
http://netload.in/dateizffyWxxVcP/downloadbox.org-Avatar.DVDSCR.iso.part21.rar.htm
http://netload.in/dateiujbu5BZ1gZ/downloadbox.org-Avatar.DVDSCR.iso.part22.rar.htm

http://rapidshare.com/files/345961976/downloadbox.org-Avatar.DVDSCR.iso.part01.rar
http://rapidshare.com/files/345962004/downloadbox.org-Avatar.DVDSCR.iso.part02.rar
http://rapidshare.com/files/345966545/downloadbox.org-Avatar.DVDSCR.iso.part03.rar
http://rapidshare.com/files/345963063/downloadbox.org-Avatar.DVDSCR.iso.part04.rar
http://rapidshare.com/files/345966233/downloadbox.org-Avatar.DVDSCR.iso.part05.rar
http://rapidshare.com/files/345967214/downloadbox.org-Avatar.DVDSCR.iso.part06.rar
http://rapidshare.com/files/345963486/downloadbox.org-Avatar.DVDSCR.iso.part07.rar
http://rapidshare.com/files/345963009/downloadbox.org-Avatar.DVDSCR.iso.part08.rar
http://rapidshare.com/files/345963426/downloadbox.org-Avatar.DVDSCR.iso.part09.rar
http://rapidshare.com/files/345968950/downloadbox.org-Avatar.DVDSCR.iso.part10.rar
http://rapidshare.com/files/345969013/downloadbox.org-Avatar.DVDSCR.iso.part11.rar
http://rapidshare.com/files/345964101/downloadbox.org-Avatar.DVDSCR.iso.part12.rar
http://rapidshare.com/files/345969168/downloadbox.org-Avatar.DVDSCR.iso.part13.rar
http://rapidshare.com/files/345964086/downloadbox.org-Avatar.DVDSCR.iso.part14.rar
http://rapidshare.com/files/345964542/downloadbox.org-Avatar.DVDSCR.iso.part15.rar
http://rapidshare.com/files/345964304/downloadbox.org-Avatar.DVDSCR.iso.part16.rar
http://rapidshare.com/files/345965016/downloadbox.org-Avatar.DVDSCR.iso.part18.rar
http://rapidshare.com/files/345965012/downloadbox.org-Avatar.DVDSCR.iso.part17.rar
http://rapidshare.com/files/345965347/downloadbox.org-Avatar.DVDSCR.iso.part19.rar
http://rapidshare.com/files/345965451/downloadbox.org-Avatar.DVDSCR.iso.part20.rar
http://rapidshare.com/files/345965907/downloadbox.org-Avatar.DVDSCR.iso.part21.rar
http://rapidshare.com/files/345965614/downloadbox.org-Avatar.DVDSCR.iso.part22.rar

Download File

Here you can download files online. Unlimited access to all sources file with one click direct download link!
Share
  • Featured link
  • [5-02-2010]

Comment