A.Nightmare.on.Elm.Street.2010.CAM.XviD-danytheone

Movies. May 9, 2010 by CONFiG.
A.Nightmare.on.Elm.Street.2010.CAM.XviD-danytheone

A Nightmare on Elm Street 2010 CAM XviD-FLTeam 595.52 MB


http://www.imdb.com/title/tt1179056/


Format : AVI
Format/Info : Audio Video Interleave
File size : 596 MiB
Duration : 1h 30mn
Overall bit rate : 916 Kbps
Writing library : VirtualDub build 32661/release

Video : KARIM1 [Thanks]
ID : 0
Format : MPEG-4 Visual
Format profile : AdvancedSimple@L5
Format settings, BVOP : Yes
Format settings, QPel : No
Format settings, GMC : No warppoints
Format settings, Matrix : Default (H.263)
Codec ID : XVID
Codec ID/Hint : XviD
Duration : 1h 30mn
Bit rate : 750 Kbps
Width : 640 pixels
Height : 352 pixels
Display aspect ratio : 16:9
Frame rate : 29.970 fps
Resolution : 24 bits
Colorimetry : 4:2:0
Scan type : Progressive
Bits/(Pixel*Frame) : 0.111
Stream size : 487 MiB (82%)
Writing library : XviD 1.2.1 (UTC 2008-12-04)

Audio
ID : 1
Format : MPEG Audio
Format version : Version 1
Format profile : Layer 3
Codec ID : 55
Codec ID/Hint : MP3
Duration : 1h 30mn
Bit rate mode : Constant
Bit rate : 160 Kbps
Channel(s) : 2 channels
Sampling rate : 44.1 KHz
Resolution : 16 bits
Video delay : 33ms
Stream size : 104 MiB (17%)
Alignment : Split accross interleaves
Interleave, duration : 500 ms (14.98 video frames)
Interleave, preload duration : 500 ms
Note : check simple before download
NFO - Sample

A.Nightmare.on.Elm.Street.2010.CAM.XviD-danytheone
Download
A.Nightmare.on.Elm.Street.2010.CAM.XviD-danytheone

http://www.share-online.biz/download.php?id=KBRS342LHH7&name=downloadbox.org-A.Nightm.WP-danytheone.part1.rar
http://www.share-online.biz/download.php?id=FBAR342L15&name=downloadbox.org-A.Nightm.WP-danytheone.part2.rar
http://www.share-online.biz/download.php?id=FV1V342LVK&name=downloadbox.org-A.Nightm.WP-danytheone.part3.rar

http://x7.to/dd9q5n/downloadbox.org-A.Nightm.WP-danytheone.part1.rar
http://x7.to/ndf629/downloadbox.org-A.Nightm.WP-danytheone.part2.rar
http://x7.to/c58q2j/downloadbox.org-A.Nightm.WP-danytheone.part3.rar

http://hotfile.com/dl/41915789/e0fb9a5/downloadbox.org-A.Nightm.WP-danytheone.part1.rar.html
http://hotfile.com/dl/41915505/279be6b/downloadbox.org-A.Nightm.WP-danytheone.part2.rar.html
http://hotfile.com/dl/41915859/5174d21/downloadbox.org-A.Nightm.WP-danytheone.part3.rar.html

http://rapidshare.com/files/385008128/downloadbox.org-A.Nightm.WP-danytheone.part1.rar
http://rapidshare.com/files/385009093/downloadbox.org-A.Nightm.WP-danytheone.part2.rar
http://rapidshare.com/files/385008065/downloadbox.org-A.Nightm.WP-danytheone.part3.rar

Download File

Here you can download files online. Unlimited access to all sources file with one click direct download link!
Share
  • Featured link
  • [9-05-2010]

Comment