3D Fluff-Introduction to R12 DVD Training for CINEMA 4D R12

Tutorial & e-learning. June 28, 2011 by sputnik.
3D Fluff-Introduction to R12 DVD Training for CINEMA 4D R12

3D Fluff-Introduction to R12 DVD Training for CINEMA 4D R12
ENG| 04:53:01 | format: MOV| author: Matthew O'Neill| 1.93Gb
Genre: elearning

This is the physical DVD edition which will ship to your address, you may also be interested in the immediate download option.
Introduction to R12 is a complete starter course with 5 hours of tuition for anyone just starting with CINEMA 4D. Targetted towards someone who is currently using Photoshop or After Effects, or anyone currently using an old or low-end 3D application that is looking to move up to a professional piece of software.
Matthew takes you through everything from setting your projects up, adjusting preferences to make your life easier, through all the expected areas such as modelling, lighting, animation, texturing and rendering.
Everything is explained clearly and tips about common mistakes and misunderstandings are explained so that you don't get stuck. This DVD is suitable for all versions of CINEMA 4D R12 but does predominantly cover the features found in the Prime edition. Some extra pointers are mentioned though so that users of other versions such as Broadcast and Studio know where to look if they wish to read up on specific extra features which might help them.

Main topics covered:
General application guide
Modeling, from simple spline-based to full poly editing
Animation
Materials and textures
Setting up renders
Particle systems
Easy object deformation
Which buttons you shouldn't worry about.

Video
ID : 2
Format : AVC
Format/Info : Advanced Video Codec
Format profile : Main@L4.0
Format settings, CABAC : No
Format settings, ReFrames : 2 frames
Codec ID : avc1
Codec ID/Info : Advanced Video Coding
Duration : 4h 53mn 01s
Bit rate mode : Variable
Bit rate : 406 Kbps
Width : 1 440 pixels
Height : 900 pixels
Display aspect ratio : 1.600
Frame rate mode : Constant
Frame rate : 15.000 fps
Resolution : 8 bits
Colorimetry : 4:2:0
Scan type : Progressive
Bits/(Pixel*Frame) : 0.021
Stream size : 75.3 MiB (82%)
Language : English
Encoded date : UTC 2010-08-28 21:36:48
Tagged date : UTC 2010-09-03 20:35:01
Color primaries : BT.709-5, BT.1361, IEC 61966-2-4, SMPTE RP177
Transfer characteristics : BT.709-5, BT.1361
Matrix coefficients : BT.709-5, BT.1361, IEC 61966-2-4 709, SMPTE RP177

Audio:
ID : 1
Format : AAC
Format/Info : Advanced Audio Codec
Format version : Version 4
Format profile : LC
Format settings, SBR : No
Format settings, PS : Yes
Codec ID : 40
Duration : 4h 53mn 01s
Bit rate mode : Variable
Bit rate : 78.9 Kbps
Channel(s) : 2 channels
Channel positions : Front: L R
Sampling rate : 48.0 KHz
Resolution : 16 bits
Stream size : 14.7 MiB (16%)
Language : English
Encoded date : UTC 2010-08-28 21:36:48
Tagged date : UTC 2010-09-03 20:35:01

3D Fluff-Introduction to R12 DVD Training for CINEMA 4D R12

3D Fluff-Introduction to R12 DVD Training for CINEMA 4D R12

3D Fluff-Introduction to R12 DVD Training for CINEMA 4D R12


Download From Filesonic

http://www.filesonic.com/file/1319548414/Intro-Tutolearing.part01.rar
http://www.filesonic.com/file/1319548104/Intro-Tutolearing.part02.rar
http://www.filesonic.com/file/1319549464/Intro-Tutolearing.part03.rar
http://www.filesonic.com/file/1319549534/Intro-Tutolearing.part04.rar
http://www.filesonic.com/file/1319559464/Intro-Tutolearing.part05.rar
http://www.filesonic.com/file/1319558634/Intro-Tutolearing.part06.rar
http://www.filesonic.com/file/1319561964/Intro-Tutolearing.part07.rar
http://www.filesonic.com/file/1319560994/Intro-Tutolearing.part08.rar

Download From Wupload

http://www.wupload.com/file/36315169/Intro-Tutolearing.part01.rar
http://www.wupload.com/file/36320002/Intro-Tutolearing.part02.rar
http://www.wupload.com/file/36330258/Intro-Tutolearing.part03.rar
http://www.wupload.com/file/36228875/Intro-Tutolearing.part04.rar
http://www.wupload.com/file/36227607/Intro-Tutolearing.part05.rar
http://www.wupload.com/file/36232516/Intro-Tutolearing.part06.rar
http://www.wupload.com/file/36418924/Intro-Tutolearing.part07.rar
http://www.wupload.com/file/36233321/Intro-Tutolearing.part08.rar

Download From Uploadstation

http://www.uploadstation.com/file/dwTV9Km/Intro-Tutolearing.part01.rar
http://www.uploadstation.com/file/Ce2vFQR/Intro-Tutolearing.part02.rar
http://www.uploadstation.com/file/KAVW8k4/Intro-Tutolearing.part03.rar
http://www.uploadstation.com/file/WAeXJPV/Intro-Tutolearing.part04.rar
http://www.uploadstation.com/file/9qFtTcB/Intro-Tutolearing.part05.rar
http://www.uploadstation.com/file/NFmxjVC/Intro-Tutolearing.part06.rar
http://www.uploadstation.com/file/FZKkzqN/Intro-Tutolearing.part07.rar
http://www.uploadstation.com/file/5wfWekj/Intro-Tutolearing.part08.rar

All Links Are Interchangeable!

Download File

Here you can download files online. Unlimited access to all sources file with one click direct download link!
Share
  • Featured link
  • [28-06-2011]

Comment